<?xml version="1.0" standalone="no"?>
<!DOCTYPE svg PUBLIC "-//W3C//DTD SVG 1.1//EN" "http://www.w3.org/Graphics/SVG/1.1/DTD/svg11.dtd" >
<svg xmlns="http://www.w3.org/2000/svg" xmlns:xlink="http://www.w3.org/1999/xlink" version="1.1">
<metadata>
Created by FontForge 20201107 at Fri Sep 10 18:37:55 2021
 By 
Copyright 2020 The Jost Project Authors (https://github.com/indestructible-type/Jost)
</metadata>
<defs>
<font id="Jost-ExtraBold" horiz-adv-x="590" >
  <font-face 
    font-family="Jost ExtraBold"
    font-weight="800"
    font-stretch="normal"
    units-per-em="1000"
    panose-1="0 0 0 0 0 0 0 0 0 0"
    ascent="800"
    descent="-200"
    x-height="460"
    cap-height="700"
    bbox="-180 -369 1904 1060"
    underline-thickness="50"
    underline-position="-125"
    unicode-range="U+000D-FF19"
  />
<missing-glyph horiz-adv-x="500" 
 />
    <glyph glyph-name=".notdef" horiz-adv-x="500" 
 />
    <glyph glyph-name="uni0000" horiz-adv-x="300" 
 />
    <glyph glyph-name="uni0000" horiz-adv-x="300" 
 />
    <glyph glyph-name="uni000D" unicode="&#xd;" horiz-adv-x="300" 
 />
    <glyph glyph-name="space" unicode=" " horiz-adv-x="300" 
 />
    <glyph glyph-name="exclam" unicode="!" horiz-adv-x="356" 
d="M72 700l36 -460h141l36 460h-213zM72 68q0 -42 30 -68.5t76 -26.5q47 0 76.5 26.5t29.5 68.5q0 43 -29.5 69.5t-76.5 26.5q-46 0 -76 -26.5t-30 -69.5z" />
    <glyph glyph-name="quotedbl" unicode="&#x22;" horiz-adv-x="534" 
d="M98 700l-42 -324h111l110 324h-179zM318 700l-42 -324h112l110 324h-180z" />
    <glyph glyph-name="numbersign" unicode="#" horiz-adv-x="686" 
d="M75 404h145l30 8h208l33 -8h160v137h-576v-137zM35 164h576v137h-123l-33 -8h-239l-37 8h-144v-137zM479 700l-51 -211v-35l-50 -203l-15 -28l-54 -223h148l170 700h-148zM229 700l-170 -700h147l55 226l-1 28l48 199l17 37l51 210h-147z" />
    <glyph glyph-name="dollar" unicode="$" horiz-adv-x="634" 
d="M263 818l8 -190h123l8 190h-139zM271 66l-8 -178h138l-8 178h-122zM451 482l145 81q-23 39 -56 72.5t-83.5 54t-127.5 20.5t-135.5 -27t-91.5 -71t-33 -96t20 -90t50.5 -64t63.5 -43t59 -27q42 -16 73 -29t48.5 -27.5t17.5 -37.5q0 -19 -8 -32t-24.5 -19t-42.5 -6
q-35 0 -63 12.5t-53 38.5t-50 66l-133 -95q22 -46 66.5 -85t103.5 -63.5t124 -24.5q86 0 150 24t99.5 70.5t35.5 113.5q0 45 -13.5 80t-38 61.5t-56.5 46t-71 33.5q-42 16 -78.5 28t-58.5 28t-22 43q0 15 7 27t22 20t39 8q23 0 43.5 -10.5t38.5 -31t33 -49.5z" />
    <glyph glyph-name="percent" unicode="%" horiz-adv-x="969" 
d="M19 530q0 -53 26.5 -97t71.5 -69.5t100 -25.5q56 0 101 25.5t71.5 69.5t26.5 97t-26.5 96.5t-71.5 69.5t-101 26q-55 0 -100 -26t-71.5 -69.5t-26.5 -96.5zM159 530q0 16 8 29t21 21t29 8q17 0 30 -8t20.5 -21t7.5 -29q0 -15 -7.5 -29t-20.5 -21.5t-30 -7.5
q-16 0 -29 7.5t-21 21.5t-8 29zM553 171q0 -53 26.5 -96.5t72 -69.5t100.5 -26q56 0 100.5 26t71 69.5t26.5 96.5t-26.5 96.5t-71 69.5t-100.5 26q-55 0 -100.5 -26t-72 -69.5t-26.5 -96.5zM694 171q0 16 7.5 29t20.5 21t30 8q16 0 29 -8t21 -21t8 -29q0 -15 -8 -28.5
t-21 -21.5t-29 -8q-17 0 -30 8t-20.5 21.5t-7.5 28.5zM676 700l-563 -700h180l563 700h-180z" />
    <glyph glyph-name="ampersand" unicode="&#x26;" horiz-adv-x="775" 
d="M223 368l340 -368h196l-370 393q-44 47 -69.5 76.5t-25.5 58.5q0 19 15 37.5t47 18.5q18 0 31.5 -9t20.5 -21.5t7 -25.5q0 -25 -28.5 -53t-84.5 -54q-21 -9 -54 -20.5t-69 -28t-67.5 -40.5t-51.5 -59.5t-20 -83.5q0 -63 33.5 -108.5t89.5 -70t126 -24.5q76 0 141.5 25
t120 65t98 88.5t73.5 94.5l-113 89q-28 -45 -62 -85t-72 -70t-78.5 -47t-82.5 -17q-32 0 -52.5 10.5t-31 28.5t-10.5 37q0 28 16.5 46t42 30.5t55.5 24.5t56 30q44 30 77.5 52.5t56 45t34 49t11.5 63.5q0 42 -24 81.5t-71 65.5t-117 26q-71 0 -122.5 -26.5t-78.5 -68
t-27 -84.5q0 -35 13 -63.5t34.5 -54.5t46.5 -54z" />
    <glyph glyph-name="quotesingle" unicode="'" horiz-adv-x="313" 
d="M98 700l-42 -324h111l110 324h-179z" />
    <glyph glyph-name="parenleft" unicode="(" horiz-adv-x="350" 
d="M185 780q-60 -112 -91.5 -237t-31.5 -253q0 -127 31.5 -252t91.5 -238h156q-52 113 -82.5 238t-30.5 252q0 128 30.5 253t82.5 237h-156z" />
    <glyph glyph-name="parenright" unicode=")" horiz-adv-x="350" 
d="M166 -200q60 113 91.5 238t31.5 252q0 128 -31.5 253t-91.5 237h-156q53 -112 82.5 -237t29.5 -253q0 -127 -29.5 -252t-82.5 -238h156z" />
    <glyph glyph-name="asterisk" unicode="*" horiz-adv-x="592" 
d="M507 605l-224 -113l26 -79l247 41zM506 299l-177 177l-66 -47l114 -223zM215 206l114 223l-66 47l-177 -177zM36 454l247 -41l26 79l-224 113zM217 700l38 -247h82l38 247h-158z" />
    <glyph glyph-name="plus" unicode="+" horiz-adv-x="692" 
d="M65 191h562v165h-562v-165zM257 552v-558h178v558h-178z" />
    <glyph glyph-name="comma" unicode="," horiz-adv-x="328" 
d="M112 110l-88 -259l130 -24l130 250z" />
    <glyph glyph-name="hyphen" unicode="-" horiz-adv-x="226" 
d="M5 164h216v147h-216v-147z" />
    <glyph glyph-name="period" unicode="." horiz-adv-x="329" 
d="M59 76q0 -42 29.5 -72.5t76.5 -30.5t76 30.5t29 72.5q0 43 -29 73.5t-76 30.5t-76.5 -30.5t-29.5 -73.5z" />
    <glyph glyph-name="slash" unicode="/" horiz-adv-x="636" 
d="M456 700l-441 -850h173l433 850h-165z" />
    <glyph glyph-name="zero" unicode="0" horiz-adv-x="681" 
d="M226 350q0 46 8.5 83t23.5 63t36 39.5t46 13.5q26 0 46.5 -13.5t36 -39.5t24 -63t8.5 -83t-8.5 -83t-24 -63t-36 -39.5t-46.5 -13.5q-25 0 -46 13.5t-36 39.5t-23.5 63t-8.5 83zM40 350q0 -117 38 -198t105.5 -123.5t156.5 -42.5q93 0 160.5 42.5t104 123.5t36.5 198
t-36.5 198t-104 123.5t-160.5 42.5q-89 0 -156.5 -42.5t-105.5 -123.5t-38 -198z" />
    <glyph glyph-name="one" unicode="1" horiz-adv-x="527" 
d="M64 479l179 42v-521h186v714l-365 -70v-165z" />
    <glyph glyph-name="two" unicode="2" horiz-adv-x="682" 
d="M20 0h623v177h-269l145 122q47 38 75 84t28 103q0 43 -18 83.5t-53.5 73.5t-87.5 52.5t-119 19.5q-96 0 -161.5 -38.5t-98 -102t-32.5 -138.5h190q0 33 11.5 59t33.5 40.5t50 14.5q22 0 37.5 -6.5t26.5 -17t16 -24.5t5 -29q0 -27 -11.5 -51.5t-33 -49.5t-50.5 -58z" />
    <glyph glyph-name="three" unicode="3" horiz-adv-x="643" 
d="M281 337q88 0 160 18.5t114.5 58.5t42.5 104q0 55 -30.5 99.5t-89 70.5t-142.5 26q-79 0 -138 -30.5t-91.5 -82t-32.5 -115.5h178q0 34 23.5 55t60.5 21q24 0 39.5 -7t23.5 -20t8 -30t-9 -32.5t-26 -27.5t-40 -19t-51 -7v-82zM327 -18q93 0 158 27t99 75t34 109
q0 54 -24.5 92t-69.5 63t-106.5 36t-136.5 11v-94q40 0 67.5 -7t45 -19.5t25.5 -29t8 -34.5q0 -27 -12 -44.5t-32.5 -24.5t-47.5 -7q-25 0 -48.5 10t-37.5 32t-14 56h-191q0 -48 19 -93t55.5 -81t89 -56.5t119.5 -20.5z" />
    <glyph glyph-name="four" unicode="4" horiz-adv-x="732" 
d="M12 120h674v164h-143l-17 -29h-265l137 183v-251l-24 -11v-176h202v700h-152z" />
    <glyph glyph-name="five" unicode="5" horiz-adv-x="669" 
d="M629 222q0 74 -31 124.5t-80 76.5t-103 26q-35 0 -67 -5t-60 -19l37 107h286v168h-427l-99 -413q36 16 72.5 24t70.5 11t59 3q31 0 60.5 -7.5t49 -24.5t19.5 -47q0 -29 -16 -48t-44.5 -27t-68.5 -8q-22 0 -51 6.5t-61.5 20.5t-64.5 36l-64 -166q35 -19 77.5 -36t95 -27.5
t116.5 -10.5q51 0 103 13.5t95 42t69.5 73.5t26.5 107z" />
    <glyph glyph-name="six" unicode="6" horiz-adv-x="697" 
d="M242 250q0 32 14 56t38.5 37t54.5 13t54 -13t38 -37t14 -56t-14 -55t-38 -36t-54 -13t-54.5 13t-38.5 36t-14 55zM334 696l-192 -236q-38 -47 -65 -98t-27 -112q0 -90 41 -149.5t108.5 -89t149.5 -29.5q81 0 149 29.5t108.5 89t40.5 149.5q0 55 -19.5 97t-51.5 71.5
t-71 44.5t-77 15q-39 0 -64 -8.5t-56 -36.5l43 21l229 242h-246z" />
    <glyph glyph-name="seven" unicode="7" horiz-adv-x="626" 
d="M30 519h311l-265 -519h210l339 700h-595v-181z" />
    <glyph glyph-name="eight" unicode="8" horiz-adv-x="651" 
d="M76 531q0 -50 22.5 -86.5t59.5 -60t80.5 -34.5t86.5 -11t87 11t81 34.5t59.5 60t22.5 86.5q0 62 -34.5 103.5t-91 62.5t-124.5 21q-67 0 -123.5 -21t-91 -62.5t-34.5 -103.5zM258 513q0 21 8.5 37t24 24.5t34.5 8.5q21 0 36 -8.5t23.5 -24.5t8.5 -37t-8.5 -36.5
t-23.5 -25t-36 -9.5q-19 0 -34.5 9.5t-24 25t-8.5 36.5zM51 190q0 -50 22.5 -89t61.5 -65t88.5 -40t101.5 -14q53 0 102 14t88.5 40t62 65t22.5 89q0 58 -26 97.5t-68 64t-90 35.5t-91 11t-90.5 -11t-89.5 -35.5t-68 -64t-26 -97.5zM245 220q0 22 10.5 40t29 28.5t40.5 10.5
q23 0 41.5 -10.5t29 -28.5t10.5 -40q0 -27 -10.5 -45t-29 -27.5t-41.5 -9.5q-22 0 -40.5 9.5t-29 27.5t-10.5 45z" />
    <glyph glyph-name="nine" unicode="9" horiz-adv-x="697" 
d="M455 450q0 -32 -14 -55.5t-38 -37t-54 -13.5t-54.5 13.5t-38.5 37t-14 55.5t14 55t38.5 36t54.5 13t54 -13t38 -36t14 -55zM363 4l192 236q38 47 65 98t27 112q0 90 -40.5 149.5t-108.5 89t-149 29.5q-82 0 -149.5 -29.5t-108.5 -89t-41 -149.5q0 -55 19.5 -97t52 -71.5
t71 -44.5t76.5 -15q39 0 64.5 9t55.5 36l-43 -21l-229 -242h246z" />
    <glyph glyph-name="colon" unicode=":" horiz-adv-x="329" 
d="M59 76q0 -42 29.5 -72.5t76.5 -30.5t76 30.5t29 72.5q0 43 -29 73.5t-76 30.5t-76.5 -30.5t-29.5 -73.5zM59 448q0 -42 29.5 -72.5t76.5 -30.5t76 30.5t29 72.5q0 43 -29 73.5t-76 30.5t-76.5 -30.5t-29.5 -73.5z" />
    <glyph glyph-name="semicolon" unicode=";" horiz-adv-x="412" 
d="M117 440q0 -42 30 -72.5t76 -30.5q47 0 76.5 30.5t29.5 72.5q0 43 -29.5 73.5t-76.5 30.5q-46 0 -76 -30.5t-30 -73.5zM140 110l-88 -259l131 -24l130 250z" />
    <glyph glyph-name="less" unicode="&#x3c;" horiz-adv-x="640" 
d="M305 269l270 99v168l-510 -212v-117l510 -212v169z" />
    <glyph glyph-name="equal" unicode="=" horiz-adv-x="630" 
d="M53 67h524v148h-524v-148zM53 290h524v148h-524v-148z" />
    <glyph glyph-name="greater" unicode="&#x3e;" horiz-adv-x="640" 
d="M335 262l-270 -98v-169l510 212v117l-510 212v-168z" />
    <glyph glyph-name="question" unicode="?" horiz-adv-x="647" 
d="M422 500q0 -22 -18 -47.5t-56 -44.5t-98 -19h-34l20 -179h140l4 74q54 11 103 37.5t80.5 71.5t31.5 107q0 54 -22.5 95t-60.5 69.5t-85.5 43t-97.5 14.5q-59 0 -109 -15.5t-93.5 -45.5t-82.5 -73l113 -97q30 43 74 65.5t88 22.5q33 0 56 -9.5t35 -27t12 -42.5zM201 64
q0 -36 29.5 -63.5t75.5 -27.5q48 0 77 27.5t29 63.5q0 37 -29 64.5t-77 27.5q-46 0 -75.5 -27.5t-29.5 -64.5z" />
    <glyph glyph-name="at" unicode="@" horiz-adv-x="770" 
d="M331 320q0 27 8 51t21.5 38.5t30.5 14.5q11 0 19 -6.5t12 -20t4 -35.5q0 -29 -9 -52.5t-23 -37.5t-29 -14q-16 0 -25 16t-9 46zM198 311q0 -49 15.5 -84.5t44.5 -55t70 -19.5q40 0 73.5 25.5t54.5 74.5t21 118q0 44 -16.5 80t-44 58t-62.5 22q-38 0 -74 -25.5t-59 -74.5
t-23 -119zM15 320q0 -99 39.5 -178.5t117.5 -125.5t193 -46q74 0 131.5 13.5t102.5 38.5l-38 100q-42 -19 -84.5 -31t-95.5 -12q-83 0 -137 30t-80.5 83.5t-26.5 127.5q0 66 19.5 120t55.5 93.5t87.5 61.5t115.5 22q54 0 94.5 -18t68 -49t41.5 -72t14 -88q0 -59 -10 -89.5
t-24 -41.5t-25 -11q-8 0 -13 4.5t-7.5 13t-2.5 20.5q0 6 0.5 14t1.5 13l22 207h-128l-20 -218l15 -40q-5 -33 10.5 -60t44.5 -43.5t63 -16.5q37 0 72 14t63 43.5t44 76.5t16 114q0 62 -22.5 122.5t-67 108.5t-107.5 76.5t-143 28.5q-87 0 -160 -31t-127 -86.5t-83.5 -129.5
t-29.5 -159z" />
    <glyph glyph-name="A" unicode="A" horiz-adv-x="757" 
d="M195 113h370l-5 143h-359zM378 413l93 -210l-11 -50l80 -153h220l-382 747l-381 -747h220l81 160l-12 43z" />
    <glyph glyph-name="B" unicode="B" horiz-adv-x="695" 
d="M216 342h137q75 0 133.5 20.5t92.5 61t34 97.5q0 60 -34 99.5t-92.5 59.5t-133.5 20h-281v-700h299q88 0 151 19.5t97 62.5t34 113q0 54 -24.5 92.5t-65.5 63t-91 36t-101 11.5h-155v-106h131q22 0 40.5 -3t33 -11t22.5 -21t8 -33q0 -31 -14 -47.5t-37.5 -22.5t-52.5 -6
h-81v404h63q40 0 61 -15t21 -47q0 -21 -9.5 -36t-27.5 -23t-45 -8h-113v-81z" />
    <glyph glyph-name="C" unicode="C" horiz-adv-x="705" 
d="M245 350q0 59 26.5 100.5t70.5 63t97 21.5q50 0 87 -13t66 -33.5t51 -43.5v204q-41 31 -90.5 50t-126.5 19q-87 0 -160 -26t-125 -75t-80.5 -116.5t-28.5 -150.5t28.5 -150.5t80.5 -116.5t125 -75t160 -26q77 0 126.5 19.5t90.5 49.5v204q-22 -23 -51 -43.5t-66 -33.5
t-87 -13q-53 0 -97 21.5t-70.5 63t-26.5 100.5z" />
    <glyph glyph-name="D" unicode="D" horiz-adv-x="749" 
d="M72 700v-700h201v700h-201zM334 0q119 0 204.5 42.5t132 121t46.5 186.5q0 109 -46.5 187t-132 120.5t-204.5 42.5h-130v-170h122q35 0 68.5 -7.5t60.5 -27t43.5 -55t16.5 -90.5t-16.5 -90.5t-43.5 -55t-60.5 -27t-68.5 -7.5h-122v-170h130z" />
    <glyph glyph-name="E" unicode="E" horiz-adv-x="619" 
d="M204 0h353v157h-353v-157zM204 543h353v157h-353v-157zM204 288h333v152h-333v-152zM72 700v-700h186v700h-186z" />
    <glyph glyph-name="F" unicode="F" horiz-adv-x="569" 
d="M204 535h313v165h-313v-165zM204 263h303v153h-303v-153zM72 700v-700h186v700h-186z" />
    <glyph glyph-name="G" unicode="G" horiz-adv-x="826" 
d="M425 247h173q-9 -23 -23.5 -43t-34.5 -34.5t-47 -22t-62 -7.5q-58 0 -102 25t-69 72.5t-25 112.5q0 66 26.5 111t71 68t98.5 23q56 0 91 -26t56 -64l177 85q-34 49 -80 87.5t-106.5 61t-137.5 22.5q-85 0 -158 -25.5t-127 -74t-84 -116.5t-30 -152t29 -153.5t81.5 -119
t124 -76.5t156.5 -27q92 0 163 32.5t118 89.5t69 133t15 162h-363v-144z" />
    <glyph glyph-name="H" unicode="H" horiz-adv-x="808" 
d="M119 279h544v173h-544v-173zM542 700v-700h194v700h-194zM72 700v-700h194v700h-194z" />
    <glyph glyph-name="I" unicode="I" horiz-adv-x="342" 
d="M72 700v-700h198v700h-198z" />
    <glyph glyph-name="J" unicode="J" horiz-adv-x="357" 
d="M-73 -52l-107 -134q25 -14 57.5 -27t72 -22t81.5 -9q51 0 96.5 10t81 32.5t56 59.5t20.5 90v752h-213v-706q0 -43 -20.5 -60.5t-43.5 -17.5q-21 0 -43 10t-38 22z" />
    <glyph glyph-name="K" unicode="K" horiz-adv-x="739" 
d="M72 700v-700h202v700h-202zM501 700l-283 -334l289 -366h235l-293 372l278 328h-226z" />
    <glyph glyph-name="L" unicode="L" horiz-adv-x="551" 
d="M72 700v-700h477v165h-283v535h-194z" />
    <glyph glyph-name="M" unicode="M" horiz-adv-x="915" 
d="M277 322l180 -257l181 257l39 -322h206l-121 735l-305 -403l-304 403l-121 -735h206z" />
    <glyph glyph-name="N" unicode="N" horiz-adv-x="799" 
d="M541 700v-356l-469 391v-735h186v356l469 -391v735h-186z" />
    <glyph glyph-name="O" unicode="O" horiz-adv-x="830" 
d="M237 350q0 57 22 100t62 67.5t94 24.5q57 0 96.5 -24.5t60.5 -67.5t21 -100q0 -56 -22 -99.5t-61.5 -68t-94.5 -24.5q-54 0 -94 24.5t-62 68t-22 99.5zM32 350q0 -82 28 -151t79.5 -119.5t121.5 -78t154 -27.5t154.5 27.5t121.5 78t79 119.5t28 151q0 83 -28.5 150.5
t-80.5 116t-121.5 75t-152.5 26.5q-81 0 -150.5 -26.5t-121.5 -75t-81.5 -116t-29.5 -150.5z" />
    <glyph glyph-name="P" unicode="P" horiz-adv-x="645" 
d="M72 700v-700h194v700h-194zM196 543h135q46 0 71 -20t25 -57q0 -38 -25 -58t-71 -20h-135v-156h135q96 0 158.5 28t93 81t30.5 125q0 73 -30.5 125t-93 80.5t-158.5 28.5h-135v-157z" />
    <glyph glyph-name="Q" unicode="Q" horiz-adv-x="885" 
d="M237 350q0 57 23 100t64 67.5t95 24.5q65 0 109 -30.5t66.5 -79.5t22.5 -106t-22.5 -98t-63.5 -63.5t-96 -22.5q-54 0 -99 25t-72 72t-27 111zM32 350q0 -82 28.5 -151t81 -119.5t123 -78t154.5 -27.5t153.5 27.5t120.5 78t78 119.5t27 151q0 83 -28 150.5t-78.5 116
t-120 75t-152.5 26.5q-81 0 -151 -26.5t-123.5 -75t-83 -116t-29.5 -150.5zM350 300l340 -316h203l-348 316h-195z" />
    <glyph glyph-name="R" unicode="R" horiz-adv-x="673" 
d="M261 309l184 -309h226l-210 309h-200zM72 700v-700h194v700h-194zM196 536h135q31 0 52 -9t32.5 -26.5t11.5 -42.5t-11.5 -43t-32.5 -27t-52 -9h-135v-147h151q96 0 158.5 29.5t93 83t30.5 121.5q0 69 -30.5 121.5t-93 82.5t-158.5 30h-151v-164z" />
    <glyph glyph-name="S" unicode="S" horiz-adv-x="648" 
d="M164 256l-132 -96q23 -52 68 -94.5t106.5 -67t133.5 -24.5q51 0 100 14.5t87.5 43t61 71.5t22.5 99q0 42 -13 76t-37 60.5t-56.5 46t-71.5 33.5q-45 16 -79.5 29.5t-54 29t-19.5 38.5q0 20 17 32t46 12q23 0 45 -9t41.5 -25.5t34.5 -41.5l146 81q-19 36 -54 71.5t-89 59
t-128 23.5q-71 0 -129 -24t-93 -69.5t-35 -111.5q0 -52 19.5 -90t49 -64t61.5 -42.5t58 -26.5q53 -20 82.5 -34t41.5 -27.5t12 -33.5q0 -28 -21 -42.5t-53 -14.5q-33 0 -64 14t-57 40.5t-47 63.5z" />
    <glyph glyph-name="T" unicode="T" 
d="M2 527h196v-527h194v527h196v173h-586v-173z" />
    <glyph glyph-name="U" unicode="U" horiz-adv-x="723" 
d="M67 700v-470q0 -71 23 -121t63.5 -81.5t94 -46.5t113.5 -15q61 0 114 15t94 46.5t64 81.5t23 121v470h-194v-454q0 -48 -25 -77.5t-76 -29.5q-50 0 -75 29.5t-25 77.5v454h-194z" />
    <glyph glyph-name="V" unicode="V" horiz-adv-x="757" 
d="M378 319l-153 381h-228l381 -747l382 747h-228z" />
    <glyph glyph-name="W" unicode="W" horiz-adv-x="1087" 
d="M730 335l-187 400l-186 -400l-123 365h-232l311 -743l230 386l231 -386l311 743h-232z" />
    <glyph glyph-name="X" unicode="X" horiz-adv-x="724" 
d="M466 700l-100 -186l-98 186h-241l219 -343l-244 -357h241l121 215l117 -215h242l-239 357l224 343h-242z" />
    <glyph glyph-name="Y" unicode="Y" horiz-adv-x="689" 
d="M468 700l-123 -245l-124 245h-224l249 -422v-278h198v280l248 420h-224z" />
    <glyph glyph-name="Z" unicode="Z" horiz-adv-x="642" 
d="M63 527h258l-314 -527h583v165h-280l320 535h-567v-173z" />
    <glyph glyph-name="bracketleft" unicode="[" horiz-adv-x="381" 
d="M260 632h101v148h-273v-1000h273v148h-101v704z" />
    <glyph glyph-name="backslash" unicode="\" horiz-adv-x="555" 
d="M15 700l360 -700h165l-359 700h-166z" />
    <glyph glyph-name="bracketright" unicode="]" horiz-adv-x="381" 
d="M121 -72h-101v-148h273v1000h-273v-148h101v-704z" />
    <glyph glyph-name="asciicircum" unicode="^" horiz-adv-x="510" 
d="M255 569l70 -125h152l-170 266h-104l-170 -266h152z" />
    <glyph glyph-name="underscore" unicode="_" horiz-adv-x="540" 
d="M0 -160h540v109h-540v-109z" />
    <glyph glyph-name="grave" unicode="`" horiz-adv-x="375" 
d="M47 652l180 -150l97 46l-150 160z" />
    <glyph glyph-name="a" unicode="a" horiz-adv-x="556" 
d="M196 144q0 15 6 24.5t20 14.5t37 5q33 0 63 -9t50 -26v73q-13 14 -38.5 25.5t-59 18.5t-71.5 7q-88 0 -134.5 -38t-46.5 -104q0 -47 23 -79.5t60.5 -49t81.5 -16.5q46 0 84.5 16t61 47t22.5 75l-16 60q0 -31 -12.5 -51.5t-32.5 -30t-42 -9.5q-15 0 -28 5.5t-20.5 16
t-7.5 25.5zM112 309q9 5 32 14t53.5 16t59.5 7q21 0 37 -4.5t26 -13t14.5 -20.5t4.5 -27v-281h165v322q0 49 -29.5 83t-80 51.5t-113.5 17.5q-65 0 -122.5 -16.5t-101.5 -35.5z" />
    <glyph glyph-name="b" unicode="b" horiz-adv-x="631" 
d="M227 780h-173v-780h173v780zM600 230q0 79 -31.5 132t-80.5 80.5t-104 27.5q-57 0 -102.5 -29t-72 -82.5t-26.5 -128.5q0 -74 26.5 -128t72 -83t102.5 -29q55 0 104 27.5t80.5 81t31.5 131.5zM418 230q0 -30 -13 -54t-35 -37t-49 -13q-23 0 -44.5 12.5t-35.5 35.5t-14 56
t14 56t35.5 35.5t44.5 12.5q27 0 49 -13t35 -36.5t13 -54.5z" />
    <glyph glyph-name="c" unicode="c" horiz-adv-x="498" 
d="M208 230q0 30 15 54t41 38t56 14q21 0 45 -6.5t46.5 -20.5t36.5 -36v162q-24 14 -57 24.5t-87 10.5q-79 0 -141 -29.5t-97.5 -83t-35.5 -127.5q0 -73 35.5 -127t97.5 -83.5t141 -29.5q54 0 87 10.5t57 25.5v162q-14 -21 -34.5 -35.5t-44.5 -21.5t-49 -7q-30 0 -56 12.5
t-41 36.5t-15 57z" />
    <glyph glyph-name="d" unicode="d" horiz-adv-x="631" 
d="M404 780v-780h173v780h-173zM31 230q0 -78 31.5 -131.5t81 -81t103.5 -27.5q58 0 103 29t71.5 83t26.5 128q0 75 -26.5 128.5t-71.5 82.5t-103 29q-54 0 -103.5 -27.5t-81 -80.5t-31.5 -132zM213 230q0 31 13 54.5t35 36.5t48 13q23 0 45 -12.5t36 -35.5t14 -56t-14 -56
t-36 -35.5t-45 -12.5q-26 0 -48 13t-35 37t-13 54z" />
    <glyph glyph-name="e" unicode="e" horiz-adv-x="591" 
d="M305 -10q92 0 155.5 35t100.5 106l-156 31q-15 -26 -41.5 -39.5t-64.5 -13.5q-31 0 -52 14.5t-32 41.5t-10 66q0 44 10 72.5t30 42.5t50 14q24 0 41.5 -10.5t27 -30t9.5 -47.5q0 -7 -4 -17t-9 -18l37 46h-271v-89h429q1 9 1.5 20.5t0.5 23.5q0 75 -30 126.5t-87 78.5
t-141 27t-144 -29t-92 -82.5t-32 -128.5q0 -74 33 -127.5t94.5 -83t146.5 -29.5z" />
    <glyph glyph-name="f" unicode="f" horiz-adv-x="361" 
d="M12 460v-140h339v140h-339zM331 620l66 124q-11 10 -29 23t-45 22t-65 9q-62 0 -103 -21t-61.5 -58.5t-20.5 -88.5v-630h165v584q0 21 6 34.5t16.5 20t25.5 6.5q13 0 24 -6.5t21 -18.5z" />
    <glyph glyph-name="g" unicode="g" horiz-adv-x="622" 
d="M41 -34q7 -61 35 -108.5t84 -73.5t148 -26q74 0 132.5 25t93.5 80.5t35 146.5v450h-165v-450q0 -38 -13.5 -64t-37 -39.5t-54.5 -13.5q-24 0 -44 7t-32 23t-16 43h-166zM31 238q0 -78 31.5 -129.5t81 -77t103.5 -25.5q58 0 103 27t71.5 79t26.5 126q0 75 -26.5 126.5
t-71.5 78.5t-103 27q-54 0 -103.5 -25.5t-81 -76.5t-31.5 -130zM213 238q0 31 13 52.5t35 32.5t48 11q17 0 34 -5.5t31 -17.5t22 -30t8 -43q0 -33 -14 -54t-36 -31.5t-45 -10.5q-26 0 -48 11t-35 33t-13 52z" />
    <glyph glyph-name="h" unicode="h" horiz-adv-x="581" 
d="M228 780h-173v-780h173v780zM354 280v-280h173v306q0 56 -15 94.5t-49 58.5t-94 20t-96.5 -27t-53.5 -72t-17 -100h26q0 25 8.5 41.5t24 25t35.5 8.5q34 0 46 -19.5t12 -55.5z" />
    <glyph glyph-name="i" unicode="i" horiz-adv-x="281" 
d="M43 627q0 -39 28.5 -64t68.5 -25q41 0 69.5 25t28.5 64q0 40 -28.5 65t-69.5 25q-40 0 -68.5 -25t-28.5 -65zM57 460v-460h166v460h-166z" />
    <glyph glyph-name="j" unicode="j" horiz-adv-x="278" 
d="M40 627q0 -39 28.5 -64t69.5 -25t69 25t28 64q0 40 -28 65t-69 25t-69.5 -25t-28.5 -65zM-38 -66l-66 -124q13 -11 30.5 -23.5t44.5 -21.5t64 -9q62 0 103.5 21.5t62 59.5t20.5 87v536h-165v-490q0 -21 -5.5 -34.5t-16.5 -20.5t-26 -7t-25.5 7t-20.5 19z" />
    <glyph glyph-name="k" unicode="k" horiz-adv-x="618" 
d="M54 780v-780h165v780h-165zM385 460l-196 -190l220 -270h200l-215 270l195 190h-204z" />
    <glyph glyph-name="l" unicode="l" horiz-adv-x="282" 
d="M55 780v-780h173v780h-173z" />
    <glyph glyph-name="m" unicode="m" horiz-adv-x="832" 
d="M778 298q0 55 -13 93.5t-44 59t-87 20.5q-47 0 -84.5 -19.5t-63.5 -53.5q-14 36 -45 54.5t-86 18.5q-49 0 -82.5 -21.5t-52.5 -58.5v69h-165v-460h165v280q0 26 7 42.5t20 24.5t29 8q27 0 38.5 -19.5t11.5 -55.5v-280h173v280q0 26 7 42.5t20 24.5t29 8q27 0 38.5 -19.5
t11.5 -55.5v-280h173v298z" />
    <glyph glyph-name="n" unicode="n" 
d="M354 280v-280h181v298q0 82 -38 127.5t-128 45.5q-53 0 -87.5 -21.5t-53.5 -57.5v68h-173v-460h173v280q0 25 8.5 42t24 25t35.5 8q34 0 46 -19.5t12 -55.5z" />
    <glyph glyph-name="o" unicode="o" horiz-adv-x="602" 
d="M31 230q0 -73 35 -127t96.5 -83.5t138.5 -29.5q78 0 139 29.5t96.5 83.5t35.5 127q0 74 -35.5 128t-96.5 83.5t-139 29.5q-77 0 -138.5 -29.5t-96.5 -83.5t-35 -128zM209 230q0 32 12.5 54.5t33.5 34.5t46 12t46 -12t34 -34.5t13 -54.5t-13 -54.5t-34 -34t-46 -11.5
t-46 11.5t-33.5 34t-12.5 54.5z" />
    <glyph glyph-name="p" unicode="p" horiz-adv-x="631" 
d="M227 -220v680h-173v-680h173zM600 230q0 83 -31.5 137.5t-80.5 82.5t-104 28q-61 0 -104.5 -31t-66 -86.5t-22.5 -130.5q0 -74 22.5 -130t66 -87t104.5 -31q55 0 104 28t80.5 83t31.5 137zM418 230q0 -30 -13 -52t-35 -33t-49 -11q-23 0 -44.5 10.5t-35.5 31.5t-14 54
t14 54t35.5 31.5t44.5 10.5q27 0 49 -11t35 -32.5t13 -52.5z" />
    <glyph glyph-name="q" unicode="q" horiz-adv-x="631" 
d="M404 -220h173v680h-173v-680zM31 230q0 -82 31.5 -137t81 -83t103.5 -28q62 0 105 31t65.5 87t22.5 130q0 75 -22.5 130.5t-65.5 86.5t-105 31q-54 0 -103.5 -28t-81 -82.5t-31.5 -137.5zM213 230q0 31 13 52.5t35 32.5t48 11q23 0 45 -10.5t36 -31.5t14 -54t-14 -54
t-36 -31.5t-45 -10.5q-26 0 -48 11t-35 33t-13 52z" />
    <glyph glyph-name="r" unicode="r" horiz-adv-x="432" 
d="M224 460h-169v-460h169v460zM355 283l72 149q-11 17 -34 28.5t-48 11.5q-40 0 -76.5 -25.5t-58.5 -68.5t-22 -98l36 -69q0 33 9.5 55t26.5 33t37 11t33.5 -7.5t24.5 -19.5z" />
    <glyph glyph-name="s" unicode="s" horiz-adv-x="472" 
d="M81 175l-63 -118q36 -23 75 -41t83.5 -28t94.5 -10q86 0 132.5 37t46.5 115q0 43 -18.5 69t-48 42.5t-64.5 29.5q-37 14 -61 22t-36 16.5t-12 22.5q0 10 8.5 17t27.5 7q30 0 69.5 -17.5t71.5 -45.5l51 115q-31 18 -63 31.5t-67.5 22t-76.5 8.5q-53 0 -93 -15.5t-63 -45
t-23 -72.5q0 -45 18.5 -73.5t48.5 -45t63 -27.5q40 -13 60.5 -22t28 -17.5t7.5 -20.5q0 -14 -9 -22t-28 -8q-12 0 -34 5t-53 21t-73 48z" />
    <glyph glyph-name="t" unicode="t" horiz-adv-x="341" 
d="M5 460v-140h331v140h-331zM88 620v-620h165v620h-165z" />
    <glyph glyph-name="u" unicode="u" 
d="M236 180v280h-181v-298q0 -82 38 -127.5t128 -45.5q52 0 86.5 21.5t54.5 57.5v-68h173v460h-173v-280q0 -25 -8.5 -42t-23.5 -25t-37 -8q-33 0 -45 19.5t-12 55.5z" />
    <glyph glyph-name="v" unicode="v" horiz-adv-x="553" 
d="M-4 460l280 -519l281 519h-183l-98 -235l-97 235h-183z" />
    <glyph glyph-name="w" unicode="w" horiz-adv-x="785" 
d="M-11 460l248 -487l155 255l156 -255l248 487h-179l-90 -217l-136 252l-133 -252l-90 217h-179z" />
    <glyph glyph-name="x" unicode="x" horiz-adv-x="565" 
d="M364 460l-78 -109l-77 109h-199l185 -224l-195 -236h199l87 122l88 -122h191l-192 236l182 224h-191z" />
    <glyph glyph-name="y" unicode="y" horiz-adv-x="545" 
d="M557 460h-175l-148 -371l91 -1l-149 372h-188l206 -431l-108 -249h171z" />
    <glyph glyph-name="z" unicode="z" horiz-adv-x="541" 
d="M244 304l-229 -304h475v156h-177l213 304h-465v-156h183z" />
    <glyph glyph-name="braceleft" unicode="{" horiz-adv-x="424" 
d="M291 595q0 20 13 35t35 15h35v135h-100q-47 0 -87 -14.5t-64.5 -45t-24.5 -80.5v-178q0 -57 -14.5 -79.5t-49.5 -30.5v-124q35 -7 49.5 -30t14.5 -80v-178q0 -49 24.5 -80t64.5 -45.5t87 -14.5h100v135h-35q-22 0 -35 15.5t-13 34.5v105q0 33 -3.5 70t-17.5 68.5
t-45 51.5t-87 20v-20q56 0 87 20t45 51.5t17.5 68.5t3.5 70v105z" />
    <glyph glyph-name="bar" unicode="|" horiz-adv-x="376" 
d="M100 785v-1000h176v1000h-176z" />
    <glyph glyph-name="braceright" unicode="}" horiz-adv-x="424" 
d="M135 -15q0 -19 -12.5 -34.5t-35.5 -15.5h-35v-135h100q46 0 86.5 14.5t65 45.5t24.5 80v178q0 57 15 80t49 30v124q-34 8 -49 30.5t-15 79.5v178q0 50 -24.5 80.5t-65 45t-86.5 14.5h-100v-135h35q23 0 35.5 -15t12.5 -35v-105q0 -33 3 -70t17.5 -68.5t45.5 -51.5t87 -20
v20q-56 0 -87 -20t-45.5 -51.5t-17.5 -68.5t-3 -70v-105z" />
    <glyph glyph-name="asciitilde" unicode="~" horiz-adv-x="575" 
d="M161 160q-2 6 -4.5 12t-2.5 18q0 14 8 28.5t31 14.5q13 0 26 -4.5t26.5 -12t29.5 -18.5q38 -24 67 -37t60 -13q46 0 72 14.5t45 39.5q19 24 25 50.5t6 53.5q0 8 -1 15t-3 13l-134 5q3 -7 5.5 -16.5t2.5 -18.5q0 -14 -7 -25.5t-23 -11.5q-13 0 -30 10t-41 25
q-25 16 -44 27t-38 16.5t-43 5.5q-55 0 -85 -17t-51 -43q-19 -24 -26 -49t-7 -53q0 -13 3 -24z" />
    <glyph glyph-name="uni00A0" unicode="&#xa0;" horiz-adv-x="300" 
 />
    <glyph glyph-name="exclamdown" unicode="&#xa1;" horiz-adv-x="356" 
d="M285 -225l-36 460h-141l-36 -460h213zM284 407q0 42 -29.5 68.5t-76.5 26.5q-46 0 -76 -26.5t-30 -68.5t30 -68.5t76 -26.5q47 0 76.5 26.5t29.5 68.5z" />
    <glyph glyph-name="cent" unicode="&#xa2;" horiz-adv-x="580" 
d="M224 38l-13 -150h149l-12 150h-124zM218 230q0 32 16.5 55.5t42 37t54.5 13.5q44 0 75 -19t53 -46v164q-24 16 -60.5 25.5t-83.5 9.5q-79 0 -141 -29.5t-97.5 -83t-35.5 -127.5q0 -73 35.5 -127t97.5 -83.5t141 -29.5q47 0 83.5 9.5t60.5 25.5v164q-22 -27 -53 -46
t-75 -19q-29 0 -54.5 12t-42 35t-16.5 59zM211 578l13 -150h124l12 150h-149z" />
    <glyph glyph-name="sterling" unicode="&#xa3;" horiz-adv-x="620" 
d="M67 370v-107h384v107h-384zM430 463l156 57q-2 33 -20.5 66.5t-51.5 61.5t-79.5 45t-105.5 17q-67 0 -125 -22t-93 -64t-35 -102q0 -34 10 -58t26 -42.5t32 -36.5t26.5 -39t10.5 -49q0 -52 -13 -100.5t-42 -97t-78 -99.5h497v157h-343l-66 -107q28 8 63.5 28t69 50.5
t55.5 67t22 76.5q0 34 -9 58.5t-22.5 44t-27 36.5t-23 35.5t-9.5 41.5q0 26 11.5 42t30 23.5t40.5 7.5q26 0 43.5 -8t27.5 -22.5t15.5 -32t6.5 -35.5z" />
    <glyph glyph-name="currency" unicode="&#xa4;" horiz-adv-x="576" 
d="M19 503l102 -101l65 65l-101 102zM85 31l101 102l-65 65l-102 -101zM455 402l102 101l-66 66l-102 -102zM389 133l102 -102l66 66l-102 101zM50 300q0 -69 31.5 -123.5t85.5 -85.5t121 -31q68 0 121.5 31t85 85.5t31.5 123.5q0 70 -31.5 124t-85 85t-121.5 31
q-67 0 -121 -31t-85.5 -85t-31.5 -124zM204 300q0 26 11 45t30 29t43 10q25 0 44 -10t30 -29t11 -45q0 -25 -11 -44.5t-30 -29.5t-44 -10q-24 0 -43 10t-30 29.5t-11 44.5z" />
    <glyph glyph-name="yen" unicode="&#xa5;" horiz-adv-x="695" 
d="M45 258h602v107h-602v-107zM45 108h602v107h-602v-107zM471 700l-125 -245l-123 245h-224l249 -421v-279h199v282l247 418h-223z" />
    <glyph glyph-name="brokenbar" unicode="&#xa6;" horiz-adv-x="376" 
d="M100 695v-272h176v272h-176zM276 277h-176v-272h176v272z" />
    <glyph glyph-name="section" unicode="&#xa7;" horiz-adv-x="627" 
d="M427 540l74 116q-16 20 -46 36t-68 26t-80 10q-46 0 -91.5 -17t-75 -50.5t-29.5 -85.5q0 -32 10.5 -55.5t28 -40.5t38.5 -29t43 -20q26 -10 55.5 -20.5t50 -27t20.5 -43.5q0 -20 -11 -34t-27.5 -23t-33.5 -13v-44q42 0 82 9.5t72.5 29t51.5 48.5t19 68t-18 67t-49 47
t-72 29q-20 6 -38 9.5t-31 7t-20.5 9.5t-7.5 14q0 7 5 12.5t15 9t26 3.5q15 0 34 -6t38.5 -17t34.5 -25zM137 177l-74 -115q27 -25 61.5 -45t80 -31.5t103.5 -11.5q37 0 74 9t67 28.5t48.5 49t18.5 69.5q0 42 -18 71t-47 48.5t-62 32.5q-19 8 -42.5 14.5t-45 15t-35 22
t-13.5 35.5q0 21 10.5 33.5t27.5 21t35 14.5v42q-43 0 -84.5 -9.5t-75.5 -29t-54 -48t-20 -66.5t22.5 -65.5t58.5 -45.5t75 -28q28 -6 49.5 -12t34 -14t12.5 -21q0 -8 -4.5 -14t-15.5 -10t-27 -4t-42.5 6.5t-57 20t-60.5 37.5z" />
    <glyph glyph-name="dieresis" unicode="&#xa8;" horiz-adv-x="523" 
d="M292 624q0 -40 28.5 -65t69.5 -25t69.5 25t28.5 65t-28.5 64.5t-69.5 24.5t-69.5 -24.5t-28.5 -64.5zM36 624q0 -40 28.5 -65t68.5 -25q41 0 69.5 25t28.5 65t-28.5 64.5t-69.5 24.5q-40 0 -68.5 -24.5t-28.5 -64.5z" />
    <glyph glyph-name="copyright" unicode="&#xa9;" horiz-adv-x="800" 
d="M304 350q0 36 15.5 60.5t42.5 37.5t59 13q44 0 73 -16.5t49 -37.5v123q-25 18 -54.5 29.5t-75.5 11.5q-70 0 -123.5 -27.5t-83.5 -77.5t-30 -116t30 -116t83.5 -77.5t123.5 -27.5q46 0 75.5 11.5t54.5 29.5v123q-20 -21 -49 -37.5t-73 -16.5q-32 0 -59 13t-42.5 38
t-15.5 60zM95 350q0 67 23 123.5t64.5 98.5t97 65t120.5 23t120.5 -23t97 -65t64.5 -98.5t23 -123.5t-23 -123.5t-64.5 -98.5t-97 -65t-120.5 -23t-120.5 23t-97 65t-64.5 98.5t-23 123.5zM40 350q0 -78 27.5 -144t76 -114.5t114.5 -75t142 -26.5q77 0 142.5 26.5t114 75
t76 114.5t27.5 144t-27.5 144t-76 114.5t-114 75t-142.5 26.5q-76 0 -142 -26.5t-114.5 -75t-76 -114.5t-27.5 -144z" />
    <glyph glyph-name="ordfeminine" unicode="&#xaa;" horiz-adv-x="280" 
d="M104 530q0 11 9.5 18.5t25.5 7.5q18 0 31 -4.5t24 -13.5v40q-8 9 -30.5 15.5t-47.5 6.5q-43 0 -71 -20t-28 -54q0 -33 23.5 -52t61.5 -19q36 0 60 18.5t24 51.5l-8 29q0 -26 -14.5 -35.5t-31.5 -9.5q-13 0 -20.5 5t-7.5 16zM65 619q8 5 29 12t46 7q19 0 28.5 -10t9.5 -24
v-144h82v169q0 37 -32 56.5t-80 19.5q-31 0 -60 -8.5t-51 -17.5z" />
    <glyph glyph-name="guillemotleft" unicode="&#xab;" horiz-adv-x="550" 
d="M371 259l150 186l-107 69l-174 -259l174 -259l107 69zM154 259l150 186l-106 69l-174 -259l174 -259l106 69z" />
    <glyph glyph-name="logicalnot" unicode="&#xac;" horiz-adv-x="660" 
d="M65 264h414v-89h116v236h-530v-147z" />
    <glyph glyph-name="uni00AD" unicode="&#xad;" horiz-adv-x="210" 
d="M5 200h200v75h-200v-75z" />
    <glyph glyph-name="registered" unicode="&#xae;" horiz-adv-x="800" 
d="M385 319l78 -169h136l-110 169h-104zM247 570v-420h117v420h-117zM321 472l82 1q28 0 43 -10.5t15 -33.5q0 -22 -15 -32.5t-43 -10.5h-82v-89h91q86 0 128 39.5t42 101.5q0 55 -42 93.5t-128 38.5h-91v-98zM95 350q0 67 23 123.5t64.5 98.5t97 65t120.5 23t120.5 -23
t97 -65t64.5 -98.5t23 -123.5t-23 -123.5t-64.5 -98.5t-97 -65t-120.5 -23t-120.5 23t-97 65t-64.5 98.5t-23 123.5zM40 350q0 -78 27.5 -144t76 -114.5t114.5 -75t142 -26.5q77 0 142.5 26.5t114 75t76 114.5t27.5 144t-27.5 144t-76 114.5t-114 75t-142.5 26.5
q-76 0 -142 -26.5t-114.5 -75t-76 -114.5t-27.5 -144z" />
    <glyph glyph-name="macron" unicode="&#xaf;" horiz-adv-x="538" 
d="M80 564h378v147h-378v-147z" />
    <glyph glyph-name="degree" unicode="&#xb0;" horiz-adv-x="302" 
d="M16 596q0 -54 38 -89t96 -35q59 0 97.5 35t38.5 89q0 55 -38.5 89.5t-97.5 34.5q-58 0 -96 -34.5t-38 -89.5zM100 596q0 24 14.5 38t35.5 14q22 0 36.5 -14t14.5 -38t-14.5 -37.5t-36.5 -13.5t-36 13.5t-14 37.5z" />
    <glyph glyph-name="plusminus" unicode="&#xb1;" horiz-adv-x="639" 
d="M65 8h509v145h-509v-145zM65 329h509v152h-509v-152zM233 620v-430h173v430h-173z" />
    <glyph glyph-name="uni00B2" unicode="&#xb2;" horiz-adv-x="427" 
d="M25 282h373v106h-161l87 73q29 23 45.5 51t16.5 61q0 35 -19 66.5t-56 51.5t-91 20q-57 0 -96.5 -23t-59.5 -61.5t-20 -83.5h114q0 31 16.5 50.5t41.5 19.5q18 0 29 -7t16 -17.5t5 -22.5q0 -25 -15 -46t-42 -49z" />
    <glyph glyph-name="uni00B3" unicode="&#xb3;" horiz-adv-x="381" 
d="M158 482q53 0 96 11.5t68.5 35.5t25.5 62q0 49 -40.5 83t-116.5 34q-71 0 -114.5 -39t-43.5 -97h107q0 21 14.5 33t35.5 12q23 0 33 -9t10 -25q0 -13 -9.5 -25t-26.5 -19.5t-39 -7.5v-49zM186 269q83 0 128.5 36t45.5 91q0 43 -25.5 69.5t-71 39t-105.5 12.5v-57
q32 0 51 -7t27.5 -19t8.5 -27q0 -25 -15.5 -35.5t-39.5 -10.5q-23 0 -41.5 13.5t-18.5 45.5h-115q0 -38 20.5 -73t58.5 -56.5t92 -21.5z" />
    <glyph glyph-name="acute" unicode="&#xb4;" horiz-adv-x="375" 
d="M324 652l-127 56l-150 -160l97 -46z" />
    <glyph glyph-name="mu" unicode="&#xb5;" 
d="M236 460h-181v-780h165v338q19 -13 33 -16.5t29 -3.5q27 0 47 15t33 37v-50h173v460h-173v-248q0 -25 -8.5 -41.5t-23.5 -25t-37 -8.5q-33 0 -45 19.5t-12 55.5v248z" />
    <glyph glyph-name="paragraph" unicode="&#xb6;" horiz-adv-x="699" 
d="M288 270v-490h151v819h49v-819h151v920h-351q-62 0 -114 -25t-83 -72.5t-31 -117.5q0 -69 31 -117t83 -73t114 -25z" />
    <glyph glyph-name="periodcentered" unicode="&#xb7;" horiz-adv-x="329" 
d="M59 276q0 -42 29.5 -72.5t76.5 -30.5t76 30.5t29 72.5q0 43 -29 73.5t-76 30.5t-76.5 -30.5t-29.5 -73.5z" />
    <glyph glyph-name="cedilla" unicode="&#xb8;" horiz-adv-x="406" 
d="M180 75l-88 -203q29 11 55.5 13t33.5 2q23 0 43.5 -5t20.5 -26q0 -18 -15 -25.5t-41 -7.5q-13 0 -39 5.5t-46 19.5l-49 -77q39 -22 76.5 -30.5t83.5 -8.5q33 0 64.5 12.5t52.5 38t21 62.5q0 35 -15.5 58.5t-38 35t-43.5 11.5q-12 0 -23 -1t-21 -4l93 125z" />
    <glyph glyph-name="uni00B9" unicode="&#xb9;" horiz-adv-x="486" 
d="M128 561l107 26v-313h112v428l-219 -42v-99z" />
    <glyph glyph-name="ordmasculine" unicode="&#xba;" horiz-adv-x="278" 
d="M18 580q0 -54 38 -87t97 -33q58 0 97 33t39 87q0 55 -39 87.5t-97 32.5q-59 0 -97 -32.5t-38 -87.5zM107 580q0 24 13.5 37.5t32.5 13.5q18 0 32 -13.5t14 -37.5t-14 -37t-32 -13q-19 0 -32.5 13t-13.5 37z" />
    <glyph glyph-name="guillemotright" unicode="&#xbb;" horiz-adv-x="550" 
d="M180 251l-150 -186l106 -69l174 259l-174 259l-106 -69zM396 251l-150 -186l107 -69l173 259l-173 259l-107 -69z" />
    <glyph glyph-name="onequarter" unicode="&#xbc;" horiz-adv-x="843" 
d="M634 700l-520 -700h105l520 700h-105zM22 561l107 26v-313h112v428l-219 -42v-99zM409 72h405v98h-113l-10 -17h-186zM526 111l115 152v-163l-14 -6v-94h121v420h-91l-248 -348z" />
    <glyph glyph-name="onehalf" unicode="&#xbd;" horiz-adv-x="916" 
d="M634 700l-520 -700h105l520 700h-105zM22 561l107 26v-313h112v428l-219 -42v-99zM509 2h374v106h-162l87 73q29 23 45.5 51t16.5 61q0 35 -19 66.5t-56 51.5t-91 20q-57 0 -96.5 -23t-59.5 -61.5t-20 -83.5h114q0 31 16.5 50.5t41.5 19.5q18 0 29 -7t16 -17.5t5 -22.5
q0 -25 -15 -46t-42 -49z" />
    <glyph glyph-name="threequarters" unicode="&#xbe;" horiz-adv-x="897" 
d="M697 700l-520 -700h105l520 700h-105zM167 482q53 0 96 11.5t68.5 35.5t25.5 62q0 49 -40.5 83t-116.5 34q-71 0 -114.5 -39t-43.5 -97h107q0 21 14.5 33t35.5 12q23 0 33 -9t10 -25q0 -13 -9.5 -25t-26.5 -19.5t-39 -7.5v-49zM195 269q83 0 128.5 36t45.5 91
q0 43 -25.5 69.5t-71 39t-105.5 12.5v-57q32 0 51 -7t27.5 -19t8.5 -27q0 -25 -15.5 -35.5t-38.5 -10.5q-24 0 -42.5 13.5t-18.5 45.5h-115q0 -38 20.5 -73t58.5 -56.5t92 -21.5zM464 72h405v98h-113l-10 -17h-187zM581 111l115 152v-163l-14 -6v-94h121v420h-91l-248 -348z
" />
    <glyph glyph-name="questiondown" unicode="&#xbf;" horiz-adv-x="647" 
d="M226 200q0 22 18 47.5t56 44.5t98 19h34l-20 179h-141l-4 -74q-52 -10 -102 -37t-81.5 -71.5t-31.5 -107.5q0 -54 22.5 -95t61 -69.5t85.5 -43t97 -14.5q60 0 110 15.5t93 45.5t83 73l-114 97q-29 -43 -73 -65.5t-89 -22.5q-33 0 -55.5 9.5t-34.5 27.5t-12 42zM447 636
q0 37 -29.5 64t-76.5 27q-46 0 -76 -27t-30 -64t30 -64.5t76 -27.5q47 0 76.5 27.5t29.5 64.5z" />
    <glyph glyph-name="Agrave" unicode="&#xc0;" horiz-adv-x="757" 
d="M195 113h370l-5 143h-359zM378 413l93 -210l-11 -50l80 -153h220l-382 747l-381 -747h220l81 160l-12 43zM208 957l180 -150l98 46l-150 160z" />
    <glyph glyph-name="Aacute" unicode="&#xc1;" horiz-adv-x="757" 
d="M195 113h370l-5 143h-359zM378 413l93 -210l-11 -50l80 -153h220l-382 747l-381 -747h220l81 160l-12 43zM545 957l-128 56l-150 -160l98 -46z" />
    <glyph glyph-name="Acircumflex" unicode="&#xc2;" horiz-adv-x="757" 
d="M195 113h370l-5 143h-359zM378 413l93 -210l-11 -50l80 -153h220l-382 747l-381 -747h220l81 160l-12 43zM378 882l86 -83l123 81l-209 140l-208 -140l123 -81z" />
    <glyph glyph-name="Atilde" unicode="&#xc3;" horiz-adv-x="757" 
d="M195 113h370l-5 143h-359zM378 413l93 -210l-11 -50l80 -153h220l-382 747l-381 -747h220l81 160l-12 43zM173 877l77 -69q0 8 3.5 20t14 21.5t28.5 9.5q26 0 48.5 -14t46 -27.5t50.5 -13.5q34 0 63 14.5t50.5 35.5t29.5 39l-79 84q-15 -24 -31 -39.5t-37 -15.5t-36.5 8
t-29.5 18.5t-31.5 19t-42.5 8.5q-34 0 -60.5 -15t-42.5 -37t-21 -47z" />
    <glyph glyph-name="Adieresis" unicode="&#xc4;" horiz-adv-x="757" 
d="M195 113h370l-5 143h-359zM378 413l93 -210l-11 -50l80 -153h220l-382 747l-381 -747h220l81 160l-12 43zM433 824q0 -40 28.5 -65t69.5 -25t69.5 25t28.5 65t-28.5 65t-69.5 25t-69.5 -25t-28.5 -65zM120 832q0 -40 28.5 -64.5t69.5 -24.5t69.5 24.5t28.5 64.5t-28.5 65
t-69.5 25t-69.5 -25t-28.5 -65z" />
    <glyph glyph-name="Aring" unicode="&#xc5;" horiz-adv-x="757" 
d="M195 113h370l-5 143h-359zM378 413l93 -210l-11 -50l80 -153h220l-382 747l-381 -747h220l81 160l-12 43zM247 801q0 -53 37.5 -86.5t93.5 -33.5t94 33.5t38 86.5q0 54 -38 87t-94 33t-93.5 -33t-37.5 -87zM333 801q0 22 13 34.5t32 12.5t32 -12.5t13 -34.5t-13 -34
t-32 -12t-32 12t-13 34z" />
    <glyph glyph-name="AE" unicode="&#xc6;" horiz-adv-x="1121" 
d="M286 133h308v177h-300zM439 700l-422 -700h248l364 660zM658 0h393v157h-393v-157zM666 543h385v157h-612zM658 288h373v152h-373v-152zM567 700v-700h210v700h-210z" />
    <glyph glyph-name="Ccedilla" unicode="&#xc7;" horiz-adv-x="705" 
d="M245 350q0 59 26.5 100.5t70.5 63t97 21.5q50 0 87 -13t66 -33.5t51 -43.5v204q-41 31 -90.5 50t-126.5 19q-87 0 -160 -26t-125 -75t-80.5 -116.5t-28.5 -150.5t28.5 -150.5t80.5 -116.5t125 -75t160 -26q77 0 126.5 19.5t90.5 49.5v204q-22 -23 -51 -43.5t-66 -33.5
t-87 -13q-53 0 -97 21.5t-70.5 63t-26.5 100.5zM352 45l-89 -202q29 11 56 13t34 2q23 0 43.5 -5.5t20.5 -25.5q0 -18 -15 -26t-41 -8q-13 0 -39 6t-46 20l-50 -77q40 -23 77.5 -31.5t83.5 -8.5q33 0 64.5 13t52.5 38t21 63q0 35 -15.5 58.5t-38 34.5t-43.5 11
q-13 0 -23.5 -0.5t-21.5 -3.5l93 124z" />
    <glyph glyph-name="Egrave" unicode="&#xc8;" horiz-adv-x="619" 
d="M204 0h353v157h-353v-157zM204 543h353v157h-353v-157zM204 288h333v152h-333v-152zM72 700v-700h186v700h-186zM144 936l180 -150l97 46l-150 160z" />
    <glyph glyph-name="Eacute" unicode="&#xc9;" horiz-adv-x="619" 
d="M204 0h353v157h-353v-157zM204 543h353v157h-353v-157zM204 288h333v152h-333v-152zM72 700v-700h186v700h-186zM481 936l-127 56l-150 -160l97 -46z" />
    <glyph glyph-name="Ecircumflex" unicode="&#xca;" horiz-adv-x="619" 
d="M204 0h353v157h-353v-157zM204 543h353v157h-353v-157zM204 288h333v152h-333v-152zM72 700v-700h186v700h-186zM316 861l86 -83l122 80l-208 140l-209 -140l123 -80z" />
    <glyph glyph-name="Edieresis" unicode="&#xcb;" horiz-adv-x="619" 
d="M204 0h353v157h-353v-157zM204 543h353v157h-353v-157zM204 288h333v152h-333v-152zM72 700v-700h186v700h-186zM347 872q0 -40 28.5 -65t69.5 -25t69.5 25t28.5 65t-28.5 64.5t-69.5 24.5t-69.5 -24.5t-28.5 -64.5zM91 872q0 -40 28.5 -65t68.5 -25q41 0 69.5 25
t28.5 65t-28.5 64.5t-69.5 24.5q-40 0 -68.5 -24.5t-28.5 -64.5z" />
    <glyph glyph-name="Igrave" unicode="&#xcc;" horiz-adv-x="342" 
d="M72 700v-700h198v700h-198zM-8 936l180 -150l98 46l-150 160z" />
    <glyph glyph-name="Iacute" unicode="&#xcd;" horiz-adv-x="342" 
d="M72 700v-700h198v700h-198zM329 936l-127 56l-150 -160l97 -46z" />
    <glyph glyph-name="Icircumflex" unicode="&#xce;" horiz-adv-x="342" 
d="M72 700v-700h198v700h-198zM171 861l86 -83l123 80l-209 140l-208 -140l122 -80z" />
    <glyph glyph-name="Idieresis" unicode="&#xcf;" horiz-adv-x="342" 
d="M72 700v-700h198v700h-198zM202 868q0 -40 28.5 -65t68.5 -25q41 0 69.5 25t28.5 65t-28.5 64.5t-69.5 24.5q-40 0 -68.5 -24.5t-28.5 -64.5zM-55 868q0 -40 28.5 -65t69.5 -25t69.5 25t28.5 65t-28.5 64.5t-69.5 24.5t-69.5 -24.5t-28.5 -64.5z" />
    <glyph glyph-name="Eth" unicode="&#xd0;" horiz-adv-x="749" 
d="M6 300h364v108h-364v-108zM72 700v-700h201v700h-201zM334 0q119 0 204.5 42.5t132 121t46.5 186.5q0 109 -46.5 187t-132 120.5t-204.5 42.5h-130v-170h122q35 0 68.5 -7.5t60.5 -27t43.5 -55t16.5 -90.5t-16.5 -90.5t-43.5 -55t-60.5 -27t-68.5 -7.5h-122v-170h130z
" />
    <glyph glyph-name="Ntilde" unicode="&#xd1;" horiz-adv-x="799" 
d="M541 700v-356l-469 391v-735h186v356l469 -391v735h-186zM159 845l77 -69q0 8 3.5 20t13.5 21.5t29 9.5q25 0 47.5 -14t46.5 -27.5t51 -13.5q33 0 62.5 14.5t50.5 35.5t29 39l-78 83q-15 -24 -31.5 -39t-36.5 -15q-22 0 -37.5 8t-29 18.5t-31.5 18.5t-42 8
q-34 0 -60.5 -14.5t-42.5 -36.5t-21 -47z" />
    <glyph glyph-name="Ograve" unicode="&#xd2;" horiz-adv-x="830" 
d="M237 350q0 57 22 100t62 67.5t94 24.5q57 0 96.5 -24.5t60.5 -67.5t21 -100q0 -56 -22 -99.5t-61.5 -68t-94.5 -24.5q-54 0 -94 24.5t-62 68t-22 99.5zM32 350q0 -82 28 -151t79.5 -119.5t121.5 -78t154 -27.5t154.5 27.5t121.5 78t79 119.5t28 151q0 83 -28.5 150.5
t-80.5 116t-121.5 75t-152.5 26.5q-81 0 -150.5 -26.5t-121.5 -75t-81.5 -116t-29.5 -150.5zM259 936l180 -150l97 46l-150 160z" />
    <glyph glyph-name="Oacute" unicode="&#xd3;" horiz-adv-x="830" 
d="M237 350q0 57 22 100t62 67.5t94 24.5q57 0 96.5 -24.5t60.5 -67.5t21 -100q0 -56 -22 -99.5t-61.5 -68t-94.5 -24.5q-54 0 -94 24.5t-62 68t-22 99.5zM32 350q0 -82 28 -151t79.5 -119.5t121.5 -78t154 -27.5t154.5 27.5t121.5 78t79 119.5t28 151q0 83 -28.5 150.5
t-80.5 116t-121.5 75t-152.5 26.5q-81 0 -150.5 -26.5t-121.5 -75t-81.5 -116t-29.5 -150.5zM592 936l-128 56l-150 -160l98 -46z" />
    <glyph glyph-name="Ocircumflex" unicode="&#xd4;" horiz-adv-x="830" 
d="M237 350q0 57 22 100t62 67.5t94 24.5q57 0 96.5 -24.5t60.5 -67.5t21 -100q0 -56 -22 -99.5t-61.5 -68t-94.5 -24.5q-54 0 -94 24.5t-62 68t-22 99.5zM32 350q0 -82 28 -151t79.5 -119.5t121.5 -78t154 -27.5t154.5 27.5t121.5 78t79 119.5t28 151q0 83 -28.5 150.5
t-80.5 116t-121.5 75t-152.5 26.5q-81 0 -150.5 -26.5t-121.5 -75t-81.5 -116t-29.5 -150.5zM427 861l86 -83l123 80l-209 140l-208 -140l122 -80z" />
    <glyph glyph-name="Otilde" unicode="&#xd5;" horiz-adv-x="830" 
d="M237 350q0 57 22 100t62 67.5t94 24.5q57 0 96.5 -24.5t60.5 -67.5t21 -100q0 -56 -22 -99.5t-61.5 -68t-94.5 -24.5q-54 0 -94 24.5t-62 68t-22 99.5zM32 350q0 -82 28 -151t79.5 -119.5t121.5 -78t154 -27.5t154.5 27.5t121.5 78t79 119.5t28 151q0 83 -28.5 150.5
t-80.5 116t-121.5 75t-152.5 26.5q-81 0 -150.5 -26.5t-121.5 -75t-81.5 -116t-29.5 -150.5zM218 848l77 -69q0 8 3.5 20t14 21.5t28.5 9.5q25 0 48 -14t46.5 -27.5t50.5 -13.5q33 0 62.5 14.5t51 35.5t29.5 39l-79 83q-15 -24 -31 -39t-37 -15t-36.5 8t-29.5 18.5
t-31.5 18.5t-42.5 8q-34 0 -60.5 -14.5t-42.5 -36.5t-21 -47z" />
    <glyph glyph-name="Odieresis" unicode="&#xd6;" horiz-adv-x="830" 
d="M237 350q0 57 22 100t62 67.5t94 24.5q57 0 96.5 -24.5t60.5 -67.5t21 -100q0 -56 -22 -99.5t-61.5 -68t-94.5 -24.5q-54 0 -94 24.5t-62 68t-22 99.5zM32 350q0 -82 28 -151t79.5 -119.5t121.5 -78t154 -27.5t154.5 27.5t121.5 78t79 119.5t28 151q0 83 -28.5 150.5
t-80.5 116t-121.5 75t-152.5 26.5q-81 0 -150.5 -26.5t-121.5 -75t-81.5 -116t-29.5 -150.5zM446 868q0 -40 28.5 -65t68.5 -25q41 0 69.5 25t28.5 65t-28.5 64.5t-69.5 24.5q-40 0 -68.5 -24.5t-28.5 -64.5zM189 868q0 -40 28.5 -65t69.5 -25t69.5 25t28.5 65t-28.5 64.5
t-69.5 24.5t-69.5 -24.5t-28.5 -64.5z" />
    <glyph glyph-name="multiply" unicode="&#xd7;" horiz-adv-x="596" 
d="M145 -2l153 157l153 -157l104 104l-157 153l157 153l-104 104l-153 -157l-153 157l-104 -104l157 -153l-157 -153z" />
    <glyph glyph-name="Oslash" unicode="&#xd8;" horiz-adv-x="790" 
d="M237 350q0 59 22 102t62 66.5t94 23.5q55 0 94.5 -23.5t61.5 -66.5t22 -102t-22 -102t-61.5 -66.5t-94.5 -23.5q-54 0 -94 23.5t-62 66.5t-22 102zM32 350q0 -82 28.5 -151t80.5 -119.5t122 -78t152 -27.5q83 0 152.5 27.5t121.5 78t80.5 119.5t28.5 151
q0 83 -28.5 150.5t-80.5 116t-121.5 75t-152.5 26.5q-82 0 -152 -26.5t-122 -75t-80.5 -116t-28.5 -150.5zM700 758l-648 -760l74 -56l649 760z" />
    <glyph glyph-name="Ugrave" unicode="&#xd9;" horiz-adv-x="723" 
d="M67 700v-470q0 -71 23 -121t63.5 -81.5t94 -46.5t113.5 -15q61 0 114 15t94 46.5t64 81.5t23 121v470h-194v-454q0 -48 -25 -77.5t-76 -29.5q-50 0 -75 29.5t-25 77.5v454h-194zM191 928l180 -150l98 46l-150 160z" />
    <glyph glyph-name="Uacute" unicode="&#xda;" horiz-adv-x="723" 
d="M67 700v-470q0 -71 23 -121t63.5 -81.5t94 -46.5t113.5 -15q61 0 114 15t94 46.5t64 81.5t23 121v470h-194v-454q0 -48 -25 -77.5t-76 -29.5q-50 0 -75 29.5t-25 77.5v454h-194zM532 928l-128 56l-150 -160l98 -46z" />
    <glyph glyph-name="Ucircumflex" unicode="&#xdb;" horiz-adv-x="723" 
d="M67 700v-470q0 -71 23 -121t63.5 -81.5t94 -46.5t113.5 -15q61 0 114 15t94 46.5t64 81.5t23 121v470h-194v-454q0 -48 -25 -77.5t-76 -29.5q-50 0 -75 29.5t-25 77.5v454h-194zM361 861l86 -83l123 80l-209 140l-208 -140l123 -80z" />
    <glyph glyph-name="Udieresis" unicode="&#xdc;" horiz-adv-x="723" 
d="M67 700v-470q0 -71 23 -121t63.5 -81.5t94 -46.5t113.5 -15q61 0 114 15t94 46.5t64 81.5t23 121v470h-194v-454q0 -48 -25 -77.5t-76 -29.5q-50 0 -75 29.5t-25 77.5v454h-194zM416 868q0 -40 28.5 -65t69.5 -25t69.5 25t28.5 65t-28.5 64.5t-69.5 24.5t-69.5 -24.5
t-28.5 -64.5zM111 868q0 -40 28.5 -65t69.5 -25t69.5 25t28.5 65t-28.5 64.5t-69.5 24.5t-69.5 -24.5t-28.5 -64.5z" />
    <glyph glyph-name="Yacute" unicode="&#xdd;" horiz-adv-x="689" 
d="M515 928l-127 56l-150 -160l97 -46zM468 700l-123 -245l-124 245h-224l249 -422v-278h198v280l248 420h-224z" />
    <glyph glyph-name="Thorn" unicode="&#xde;" horiz-adv-x="631" 
d="M80 700v-700h166v700h-166zM188 436h134q37 0 62 -8t38 -25.5t13 -48.5t-13 -48.5t-38 -25.5t-62 -8h-134v-148h134q97 0 159 27t93 79t31 124q0 73 -31 124.5t-93 78.5t-159 27h-134v-148z" />
    <glyph glyph-name="germandbls" unicode="&#xdf;" horiz-adv-x="614" 
d="M382 -12q45 0 88.5 16t78 44.5t54.5 66.5t20 82q0 36 -10.5 60.5t-27 41.5t-35 29.5t-35 23t-27 22t-10.5 26.5q0 16 8.5 30t20.5 29.5t24 34.5t20 45t8 63q0 62 -35 106t-93.5 67t-129.5 23q-84 0 -142.5 -30t-89.5 -88t-31 -144l1 -538h173l-2 542q0 36 10 59t30 34
t48 11q25 0 43.5 -8.5t28.5 -25.5t10 -44q0 -25 -8.5 -45t-20.5 -37t-24 -33t-20.5 -32.5t-8.5 -36.5q0 -22 10.5 -38t27 -28.5t35.5 -23.5t35.5 -24t27 -29.5t10.5 -40.5q0 -21 -10 -38t-28 -26.5t-42 -9.5q-15 0 -32 3.5t-33.5 10t-30.5 14.5l-25 -132q17 -9 40 -16.5
t48.5 -11.5t50.5 -4z" />
    <glyph glyph-name="agrave" unicode="&#xe0;" horiz-adv-x="562" 
d="M196 138q0 15 8.5 26.5t24.5 18t37 6.5q38 0 63 -9t49 -27v78q-11 12 -35.5 22.5t-56.5 17t-64 6.5q-59 0 -104.5 -18t-70.5 -51t-25 -79q0 -44 21 -75t59.5 -47.5t89.5 -16.5q48 0 86 16.5t60.5 48t22.5 75.5l-16 58q0 -35 -13 -54.5t-34.5 -28t-45.5 -8.5
q-15 0 -28.5 4.5t-20.5 13.5t-7 23zM119 308q11 7 34 15.5t52.5 15.5t62.5 7q38 0 57.5 -17.5t19.5 -45.5v-283h165v322q0 49 -29.5 83t-80.5 51.5t-116 17.5q-62 0 -119 -16.5t-101 -35.5zM108 684l180 -150l98 46l-150 160z" />
    <glyph glyph-name="aacute" unicode="&#xe1;" horiz-adv-x="562" 
d="M196 138q0 15 8.5 26.5t24.5 18t37 6.5q38 0 63 -9t49 -27v78q-11 12 -35.5 22.5t-56.5 17t-64 6.5q-59 0 -104.5 -18t-70.5 -51t-25 -79q0 -44 21 -75t59.5 -47.5t89.5 -16.5q48 0 86 16.5t60.5 48t22.5 75.5l-16 58q0 -35 -13 -54.5t-34.5 -28t-45.5 -8.5
q-15 0 -28.5 4.5t-20.5 13.5t-7 23zM119 308q11 7 34 15.5t52.5 15.5t62.5 7q38 0 57.5 -17.5t19.5 -45.5v-283h165v322q0 49 -29.5 83t-80.5 51.5t-116 17.5q-62 0 -119 -16.5t-101 -35.5zM460 684l-127 56l-150 -160l97 -46z" />
    <glyph glyph-name="acircumflex" unicode="&#xe2;" horiz-adv-x="562" 
d="M196 138q0 15 8.5 26.5t24.5 18t37 6.5q38 0 63 -9t49 -27v78q-11 12 -35.5 22.5t-56.5 17t-64 6.5q-59 0 -104.5 -18t-70.5 -51t-25 -79q0 -44 21 -75t59.5 -47.5t89.5 -16.5q48 0 86 16.5t60.5 48t22.5 75.5l-16 58q0 -35 -13 -54.5t-34.5 -28t-45.5 -8.5
q-15 0 -28.5 4.5t-20.5 13.5t-7 23zM119 308q11 7 34 15.5t52.5 15.5t62.5 7q38 0 57.5 -17.5t19.5 -45.5v-283h165v322q0 49 -29.5 83t-80.5 51.5t-116 17.5q-62 0 -119 -16.5t-101 -35.5zM284 617l86 -83l123 80l-209 140l-208 -140l123 -80z" />
    <glyph glyph-name="atilde" unicode="&#xe3;" horiz-adv-x="562" 
d="M196 138q0 15 8.5 26.5t24.5 18t37 6.5q38 0 63 -9t49 -27v78q-11 12 -35.5 22.5t-56.5 17t-64 6.5q-59 0 -104.5 -18t-70.5 -51t-25 -79q0 -44 21 -75t59.5 -47.5t89.5 -16.5q48 0 86 16.5t60.5 48t22.5 75.5l-16 58q0 -35 -13 -54.5t-34.5 -28t-45.5 -8.5
q-15 0 -28.5 4.5t-20.5 13.5t-7 23zM119 308q11 7 34 15.5t52.5 15.5t62.5 7q38 0 57.5 -17.5t19.5 -45.5v-283h165v322q0 49 -29.5 83t-80.5 51.5t-116 17.5q-62 0 -119 -16.5t-101 -35.5zM79 608l77 -69q0 8 3.5 20t14 21.5t28.5 9.5q26 0 48.5 -14t46 -27.5t50.5 -13.5
q33 0 62.5 14.5t51 35.5t29.5 39l-79 83q-15 -24 -31 -39t-37 -15t-36.5 8t-29.5 18.5t-31.5 18.5t-42.5 8q-34 0 -60.5 -14.5t-42.5 -36.5t-21 -47z" />
    <glyph glyph-name="adieresis" unicode="&#xe4;" horiz-adv-x="562" 
d="M196 138q0 15 8.5 26.5t24.5 18t37 6.5q38 0 63 -9t49 -27v78q-11 12 -35.5 22.5t-56.5 17t-64 6.5q-59 0 -104.5 -18t-70.5 -51t-25 -79q0 -44 21 -75t59.5 -47.5t89.5 -16.5q48 0 86 16.5t60.5 48t22.5 75.5l-16 58q0 -35 -13 -54.5t-34.5 -28t-45.5 -8.5
q-15 0 -28.5 4.5t-20.5 13.5t-7 23zM119 308q11 7 34 15.5t52.5 15.5t62.5 7q38 0 57.5 -17.5t19.5 -45.5v-283h165v322q0 49 -29.5 83t-80.5 51.5t-116 17.5q-62 0 -119 -16.5t-101 -35.5zM315 624q0 -40 28.5 -65t69.5 -25q40 0 68.5 25t28.5 65t-28.5 64.5t-68.5 24.5
q-41 0 -69.5 -24.5t-28.5 -64.5zM58 624q0 -40 29 -65t69 -25q41 0 69.5 25t28.5 65t-28.5 64.5t-69.5 24.5q-40 0 -69 -24.5t-29 -64.5z" />
    <glyph glyph-name="aring" unicode="&#xe5;" horiz-adv-x="562" 
d="M196 138q0 15 8.5 26.5t24.5 18t37 6.5q38 0 63 -9t49 -27v78q-11 12 -35.5 22.5t-56.5 17t-64 6.5q-59 0 -104.5 -18t-70.5 -51t-25 -79q0 -44 21 -75t59.5 -47.5t89.5 -16.5q48 0 86 16.5t60.5 48t22.5 75.5l-16 58q0 -35 -13 -54.5t-34.5 -28t-45.5 -8.5
q-15 0 -28.5 4.5t-20.5 13.5t-7 23zM119 308q11 7 34 15.5t52.5 15.5t62.5 7q38 0 57.5 -17.5t19.5 -45.5v-283h165v322q0 49 -29.5 83t-80.5 51.5t-116 17.5q-62 0 -119 -16.5t-101 -35.5zM152 654q0 -53 38 -86.5t94 -33.5q55 0 93.5 33.5t38.5 86.5q0 54 -38.5 87
t-93.5 33q-56 0 -94 -33t-38 -87zM239 654q0 22 13 34.5t32 12.5t32 -12.5t13 -34.5t-13 -34t-32 -12t-32 12t-13 34z" />
    <glyph glyph-name="ae" unicode="&#xe6;" horiz-adv-x="917" 
d="M220 -10q85 0 140.5 29t73.5 81l-12 1q25 -56 76.5 -83.5t133.5 -27.5q92 0 154 34.5t101 106.5l-156 31q-13 -25 -42 -39t-64 -14q-29 0 -49 11t-31 34t-13 58l-20 -18h369q1 5 1.5 18t0.5 26q0 74 -27 126t-78.5 79t-125.5 27q-49 0 -90.5 -12.5t-73.5 -36.5t-54 -60
h13q-7 58 -47 85.5t-116 27.5q-51 0 -104.5 -13t-115.5 -39l55 -114q19 11 45.5 19.5t54 13.5t49.5 5q38 0 57.5 -17.5t19.5 -51.5v-55h79q-68 31 -113 43t-89 12q-60 0 -105 -18.5t-70 -51.5t-25 -78q0 -66 52 -102.5t146 -36.5zM252 97q-29 0 -42.5 10.5t-13.5 30.5
q0 26 17.5 38.5t52.5 12.5q28 0 54.5 -7.5t49.5 -21.5l-26 27l5 -48l-1 45q-2 -42 -26.5 -64.5t-69.5 -22.5zM531 235q0 41 10.5 68.5t30.5 42t49 14.5q26 0 43 -11t26.5 -31.5t9.5 -51.5v-6.5t-2 -9.5l23 33h-209z" />
    <glyph glyph-name="ccedilla" unicode="&#xe7;" horiz-adv-x="498" 
d="M208 230q0 30 15 54t41 38t56 14q21 0 45 -6.5t46.5 -20.5t36.5 -36v162q-24 14 -57 24.5t-87 10.5q-79 0 -141 -29.5t-97.5 -83t-35.5 -127.5q0 -73 35.5 -127t97.5 -83.5t141 -29.5q54 0 87 10.5t57 25.5v162q-14 -21 -34.5 -35.5t-44.5 -21.5t-49 -7q-30 0 -56 12.5
t-41 36.5t-15 57zM231 61l-88 -202q29 11 55.5 13t33.5 2q23 0 43.5 -5t20.5 -26q0 -18 -15 -25.5t-41 -7.5q-13 0 -38.5 5.5t-46.5 19.5l-49 -77q40 -23 77.5 -31.5t82.5 -8.5q33 0 64.5 13t53 38.5t21.5 62.5q0 35 -15.5 58.5t-38 35t-43.5 11.5q-13 0 -24 -1t-21 -4
l93 125z" />
    <glyph glyph-name="egrave" unicode="&#xe8;" horiz-adv-x="591" 
d="M126 194h429q2 14 2 26v18q0 73 -29 124.5t-86.5 79.5t-142.5 28q-79 0 -134.5 -24t-87.5 -67t-42 -100q-2 -12 -3 -24t-1 -25q0 -69 31 -123.5t92 -85.5t151 -31q69 0 117 17.5t82 49t57 74.5l-156 31q-10 -17 -25 -28.5t-35 -18t-46 -6.5q-25 0 -46.5 11.5t-34.5 38
t-13 71.5l2 22q0 35 10.5 59t30 36.5t47.5 12.5q24 0 40 -9t25 -26t12 -42h-246v-89zM127 683l180 -150l97 46l-150 160z" />
    <glyph glyph-name="eacute" unicode="&#xe9;" horiz-adv-x="591" 
d="M126 194h429q2 14 2 26v18q0 73 -29 124.5t-86.5 79.5t-142.5 28q-79 0 -134.5 -24t-87.5 -67t-42 -100q-2 -12 -3 -24t-1 -25q0 -69 31 -123.5t92 -85.5t151 -31q69 0 117 17.5t82 49t57 74.5l-156 31q-10 -17 -25 -28.5t-35 -18t-46 -6.5q-25 0 -46.5 11.5t-34.5 38
t-13 71.5l2 22q0 35 10.5 59t30 36.5t47.5 12.5q24 0 40 -9t25 -26t12 -42h-246v-89zM475 683l-127 56l-150 -160l97 -46z" />
    <glyph glyph-name="ecircumflex" unicode="&#xea;" horiz-adv-x="591" 
d="M126 194h429q2 14 2 26v18q0 73 -29 124.5t-86.5 79.5t-142.5 28q-79 0 -134.5 -24t-87.5 -67t-42 -100q-2 -12 -3 -24t-1 -25q0 -69 31 -123.5t92 -85.5t151 -31q69 0 117 17.5t82 49t57 74.5l-156 31q-10 -17 -25 -28.5t-35 -18t-46 -6.5q-25 0 -46.5 11.5t-34.5 38
t-13 71.5l2 22q0 35 10.5 59t30 36.5t47.5 12.5q24 0 40 -9t25 -26t12 -42h-246v-89zM299 614l86 -83l123 80l-209 140l-208 -140l123 -80z" />
    <glyph glyph-name="edieresis" unicode="&#xeb;" horiz-adv-x="591" 
d="M126 194h429q2 14 2 26v18q0 73 -29 124.5t-86.5 79.5t-142.5 28q-79 0 -134.5 -24t-87.5 -67t-42 -100q-2 -12 -3 -24t-1 -25q0 -69 31 -123.5t92 -85.5t151 -31q69 0 117 17.5t82 49t57 74.5l-156 31q-10 -17 -25 -28.5t-35 -18t-46 -6.5q-25 0 -46.5 11.5t-34.5 38
t-13 71.5l2 22q0 35 10.5 59t30 36.5t47.5 12.5q24 0 40 -9t25 -26t12 -42h-246v-89zM330 621q0 -40 28.5 -65t69.5 -25q40 0 68.5 25t28.5 65q0 39 -28.5 64t-68.5 25q-41 0 -69.5 -25t-28.5 -64zM73 621q0 -40 29 -65t69 -25q41 0 69.5 25t28.5 65q0 39 -28.5 64t-69.5 25
q-40 0 -69 -25t-29 -64z" />
    <glyph glyph-name="igrave" unicode="&#xec;" horiz-adv-x="281" 
d="M57 460v-460h166v460h-166zM-46 685l180 -150l97 46l-150 160z" />
    <glyph glyph-name="iacute" unicode="&#xed;" horiz-adv-x="281" 
d="M57 460v-460h166v460h-166zM316 685l-128 56l-150 -160l98 -46z" />
    <glyph glyph-name="icircumflex" unicode="&#xee;" horiz-adv-x="281" 
d="M57 460v-460h166v460h-166zM140 616l85 -83l123 80l-208 140l-209 -140l123 -80z" />
    <glyph glyph-name="idieresis" unicode="&#xef;" horiz-adv-x="281" 
d="M57 460v-460h166v460h-166zM171 626q0 -39 28.5 -64t69.5 -25q40 0 69 25t29 64q0 40 -29 65t-69 25q-41 0 -69.5 -25t-28.5 -65zM-86 626q0 -39 29 -64t69 -25q41 0 69.5 25t28.5 64q0 40 -28.5 65t-69.5 25q-40 0 -69 -25t-29 -65z" />
    <glyph glyph-name="eth" unicode="&#xf0;" horiz-adv-x="641" 
d="M317 -18q79 0 141.5 35t98 96t35.5 137q0 45 -13.5 93.5t-40.5 99.5t-67.5 105t-93 110t-117.5 113l-131 -81q53 -37 100 -78t87.5 -85.5t75 -93t62.5 -100.5l42 -2q-95 147 -234 147q-63 0 -111 -28.5t-74.5 -79.5t-26.5 -120q0 -78 34 -139t94.5 -95t138.5 -34z
M320 130q-27 0 -48 13t-32.5 35.5t-11.5 51.5t12 52t33 36t47 13q28 0 48.5 -13t32.5 -36t12 -52t-11.5 -51.5t-32.5 -35.5t-49 -13zM148 508l369 113l-16 58l-369 -114z" />
    <glyph glyph-name="ntilde" unicode="&#xf1;" 
d="M228 460h-173v-460h173v460zM354 280v-280h181v298q0 83 -38.5 128t-127.5 45q-60 0 -97 -27t-54.5 -72t-17.5 -100l28 8q0 25 8.5 41.5t24 25t35.5 8.5q34 0 46 -19.5t12 -55.5zM90 605l76 -69q0 8 4 20t14.5 21.5t28.5 9.5q26 0 48.5 -14t46 -27.5t50.5 -13.5
q33 0 62.5 14.5t51 35.5t29.5 39l-79 83q-15 -24 -31.5 -39t-37.5 -15t-36.5 8t-29.5 18.5t-31.5 18.5t-42.5 8q-34 0 -60 -14.5t-42 -36.5t-21 -47z" />
    <glyph glyph-name="ograve" unicode="&#xf2;" horiz-adv-x="602" 
d="M31 230q0 -73 35 -127t96.5 -83.5t138.5 -29.5q78 0 139 29.5t96.5 83.5t35.5 127q0 74 -35.5 128t-96.5 83.5t-139 29.5q-77 0 -138.5 -29.5t-96.5 -83.5t-35 -128zM209 230q0 32 12.5 54.5t33.5 34.5t46 12t46 -12t34 -34.5t13 -54.5t-13 -54.5t-34 -34t-46 -11.5
t-46 11.5t-33.5 34t-12.5 54.5zM141 685l180 -150l98 46l-150 160z" />
    <glyph glyph-name="oacute" unicode="&#xf3;" horiz-adv-x="602" 
d="M31 230q0 -73 35 -127t96.5 -83.5t138.5 -29.5q78 0 139 29.5t96.5 83.5t35.5 127q0 74 -35.5 128t-96.5 83.5t-139 29.5q-77 0 -138.5 -29.5t-96.5 -83.5t-35 -128zM209 230q0 32 12.5 54.5t33.5 34.5t46 12t46 -12t34 -34.5t13 -54.5t-13 -54.5t-34 -34t-46 -11.5
t-46 11.5t-33.5 34t-12.5 54.5zM461 685l-127 56l-150 -160l97 -46z" />
    <glyph glyph-name="ocircumflex" unicode="&#xf4;" horiz-adv-x="602" 
d="M31 230q0 -73 35 -127t96.5 -83.5t138.5 -29.5q78 0 139 29.5t96.5 83.5t35.5 127q0 74 -35.5 128t-96.5 83.5t-139 29.5q-77 0 -138.5 -29.5t-96.5 -83.5t-35 -128zM209 230q0 32 12.5 54.5t33.5 34.5t46 12t46 -12t34 -34.5t13 -54.5t-13 -54.5t-34 -34t-46 -11.5
t-46 11.5t-33.5 34t-12.5 54.5zM301 618l86 -83l123 80l-209 140l-208 -140l122 -80z" />
    <glyph glyph-name="otilde" unicode="&#xf5;" horiz-adv-x="602" 
d="M31 230q0 -73 35 -127t96.5 -83.5t138.5 -29.5q78 0 139 29.5t96.5 83.5t35.5 127q0 74 -35.5 128t-96.5 83.5t-139 29.5q-77 0 -138.5 -29.5t-96.5 -83.5t-35 -128zM209 230q0 32 12.5 54.5t33.5 34.5t46 12t46 -12t34 -34.5t13 -54.5t-13 -54.5t-34 -34t-46 -11.5
t-46 11.5t-33.5 34t-12.5 54.5zM96 605l77 -69q0 8 3.5 20t14 21.5t28.5 9.5q25 0 48 -14t46.5 -27.5t50.5 -13.5q33 0 62.5 14.5t51 35.5t29.5 39l-79 83q-15 -24 -31 -39t-37 -15t-36.5 8t-29.5 18.5t-31.5 18.5t-42.5 8q-34 0 -60.5 -14.5t-42.5 -36.5t-21 -47z" />
    <glyph glyph-name="odieresis" unicode="&#xf6;" horiz-adv-x="602" 
d="M31 230q0 -73 35 -127t96.5 -83.5t138.5 -29.5q78 0 139 29.5t96.5 83.5t35.5 127q0 74 -35.5 128t-96.5 83.5t-139 29.5q-77 0 -138.5 -29.5t-96.5 -83.5t-35 -128zM209 230q0 32 12.5 54.5t33.5 34.5t46 12t46 -12t34 -34.5t13 -54.5t-13 -54.5t-34 -34t-46 -11.5
t-46 11.5t-33.5 34t-12.5 54.5zM332 626q0 -39 28.5 -64t68.5 -25q41 0 69.5 25t28.5 64q0 40 -28.5 65t-69.5 25q-40 0 -68.5 -25t-28.5 -65zM75 626q0 -39 28.5 -64t69.5 -25t69.5 25t28.5 64q0 40 -28.5 65t-69.5 25t-69.5 -25t-28.5 -65z" />
    <glyph glyph-name="divide" unicode="&#xf7;" horiz-adv-x="645" 
d="M216 583q0 -42 30 -72.5t76 -30.5q47 0 76.5 30.5t29.5 72.5q0 43 -29.5 73.5t-76.5 30.5q-46 0 -76 -30.5t-30 -73.5zM216 106q0 -42 30 -72.5t76 -30.5q47 0 76.5 30.5t29.5 72.5q0 43 -29.5 73.5t-76.5 30.5q-46 0 -76 -30.5t-30 -73.5zM16 269h613v153h-613v-153z
" />
    <glyph glyph-name="oslash" unicode="&#xf8;" horiz-adv-x="546" 
d="M31 230q0 -77 36 -130.5t97 -81.5t137 -28t137.5 28t97.5 81.5t36 130.5q0 78 -36 131t-97.5 81t-137.5 28t-137 -28t-97 -81t-36 -131zM193 230q0 32 15 56.5t39.5 38.5t53.5 14t53.5 -14t40 -38.5t15.5 -56.5q0 -36 -15.5 -60t-40 -36.5t-53.5 -12.5t-53.5 12.5
t-39.5 36.5t-15 60zM460 508l-390 -524l61 -36l390 524z" />
    <glyph glyph-name="ugrave" unicode="&#xf9;" 
d="M362 0h173v460h-173v-460zM236 180v280h-181v-298q0 -83 38 -128t128 -45q60 0 97 27t54.5 72.5t17.5 99.5l-28 -8q0 -25 -8.5 -41.5t-23.5 -25t-37 -8.5q-33 0 -45 19.5t-12 55.5zM142 685l180 -150l98 46l-150 160z" />
    <glyph glyph-name="uacute" unicode="&#xfa;" 
d="M362 0h173v460h-173v-460zM236 180v280h-181v-298q0 -83 38 -128t128 -45q60 0 97 27t54.5 72.5t17.5 99.5l-28 -8q0 -25 -8.5 -41.5t-23.5 -25t-37 -8.5q-33 0 -45 19.5t-12 55.5zM447 685l-128 56l-150 -160l98 -46z" />
    <glyph glyph-name="ucircumflex" unicode="&#xfb;" 
d="M362 0h173v460h-173v-460zM236 180v280h-181v-298q0 -83 38 -128t128 -45q60 0 97 27t54.5 72.5t17.5 99.5l-28 -8q0 -25 -8.5 -41.5t-23.5 -25t-37 -8.5q-33 0 -45 19.5t-12 55.5zM294 618l86 -83l123 80l-209 140l-208 -140l122 -80z" />
    <glyph glyph-name="udieresis" unicode="&#xfc;" 
d="M362 0h173v460h-173v-460zM236 180v280h-181v-298q0 -83 38 -128t128 -45q60 0 97 27t54.5 72.5t17.5 99.5l-28 -8q0 -25 -8.5 -41.5t-23.5 -25t-37 -8.5q-33 0 -45 19.5t-12 55.5zM326 624q0 -39 28.5 -64t68.5 -25q41 0 69.5 25t28.5 64q0 40 -28.5 65t-69.5 25
q-40 0 -68.5 -25t-28.5 -65zM69 624q0 -39 28.5 -64t69.5 -25t69.5 25t28.5 64q0 40 -28.5 65t-69.5 25t-69.5 -25t-28.5 -65z" />
    <glyph glyph-name="yacute" unicode="&#xfd;" horiz-adv-x="545" 
d="M557 460h-175l-148 -371l91 -1l-149 372h-188l206 -431l-108 -249h171zM443 685l-128 56l-150 -160l98 -46z" />
    <glyph glyph-name="thorn" unicode="&#xfe;" horiz-adv-x="631" 
d="M227 -220v1000h-173v-1000h173zM600 230q0 79 -31.5 132t-80.5 80.5t-104 27.5q-57 0 -102.5 -29t-72 -82.5t-26.5 -128.5q0 -74 26.5 -128t72 -83t102.5 -29q55 0 104 27.5t80.5 81t31.5 131.5zM418 230q0 -30 -13 -54t-35 -37t-49 -13q-23 0 -44.5 12.5t-35.5 35.5
t-14 56t14 56t35.5 35.5t44.5 12.5q27 0 49 -13t35 -36.5t13 -54.5z" />
    <glyph glyph-name="ydieresis" unicode="&#xff;" horiz-adv-x="545" 
d="M557 460h-175l-148 -371l91 -1l-149 372h-188l206 -431l-108 -249h171zM303 621q0 -40 28.5 -65t69.5 -25q40 0 68.5 25t28.5 65q0 39 -28.5 64t-68.5 25q-41 0 -69.5 -25t-28.5 -64zM46 621q0 -40 29 -65t69 -25q41 0 69.5 25t28.5 65q0 39 -28.5 64t-69.5 25
q-40 0 -69 -25t-29 -64z" />
    <glyph glyph-name="Amacron" unicode="&#x100;" horiz-adv-x="757" 
d="M195 113h370l-5 143h-359zM378 413l93 -210l-11 -50l80 -153h220l-382 747l-381 -747h220l81 160l-12 43zM190 807h377v148h-377v-148z" />
    <glyph glyph-name="amacron" unicode="&#x101;" horiz-adv-x="562" 
d="M196 138q0 15 8.5 26.5t24.5 18t37 6.5q38 0 63 -9t49 -27v78q-11 12 -35.5 22.5t-56.5 17t-64 6.5q-59 0 -104.5 -18t-70.5 -51t-25 -79q0 -44 21 -75t59.5 -47.5t89.5 -16.5q48 0 86 16.5t60.5 48t22.5 75.5l-16 58q0 -35 -13 -54.5t-34.5 -28t-45.5 -8.5
q-15 0 -28.5 4.5t-20.5 13.5t-7 23zM119 308q11 7 34 15.5t52.5 15.5t62.5 7q38 0 57.5 -17.5t19.5 -45.5v-283h165v322q0 49 -29.5 83t-80.5 51.5t-116 17.5q-62 0 -119 -16.5t-101 -35.5zM95 538h379v148h-379v-148z" />
    <glyph glyph-name="Abreve" unicode="&#x102;" horiz-adv-x="757" 
d="M195 113h370l-5 143h-359zM378 413l93 -210l-11 -50l80 -153h220l-382 747l-381 -747h220l81 160l-12 43zM212 955q0 -42 19.5 -75.5t57 -53t89.5 -19.5q53 0 90 19.5t56.5 53t19.5 75.5h-107q0 -18 -8.5 -30.5t-22 -18.5t-28.5 -6q-14 0 -27.5 6t-22 18.5t-8.5 30.5
h-108z" />
    <glyph glyph-name="abreve" unicode="&#x103;" horiz-adv-x="562" 
d="M196 138q0 15 8.5 26.5t24.5 18t37 6.5q38 0 63 -9t49 -27v78q-11 12 -35.5 22.5t-56.5 17t-64 6.5q-59 0 -104.5 -18t-70.5 -51t-25 -79q0 -44 21 -75t59.5 -47.5t89.5 -16.5q48 0 86 16.5t60.5 48t22.5 75.5l-16 58q0 -35 -13 -54.5t-34.5 -28t-45.5 -8.5
q-15 0 -28.5 4.5t-20.5 13.5t-7 23zM119 308q11 7 34 15.5t52.5 15.5t62.5 7q38 0 57.5 -17.5t19.5 -45.5v-283h165v322q0 49 -29.5 83t-80.5 51.5t-116 17.5q-62 0 -119 -16.5t-101 -35.5zM118 682q0 -42 19.5 -75.5t57 -53t89.5 -19.5q53 0 90 19.5t56.5 53t19.5 75.5
h-107q0 -19 -8.5 -31t-22 -18t-28.5 -6t-28 6t-21.5 18t-8.5 31h-108z" />
    <glyph glyph-name="Aogonek" unicode="&#x104;" horiz-adv-x="757" 
d="M195 113h370l-5 143h-359zM378 413l93 -210l-11 -50l80 -153h220l-382 747l-381 -747h220l81 160l-12 43zM700 -106q-10 -10 -23 -15t-27 -5q-16 0 -24 9t-8 25q0 15 8.5 30.5t25.5 31t43 30.5l-41 25q-35 -18 -67 -39t-52.5 -46.5t-20.5 -59.5q0 -33 16.5 -55.5
t42.5 -33.5t56 -11q44 0 68.5 12.5t35.5 27.5z" />
    <glyph glyph-name="aogonek" unicode="&#x105;" horiz-adv-x="562" 
d="M196 138q0 15 8.5 26.5t24.5 18t37 6.5q38 0 63 -9t49 -27v78q-11 12 -35.5 22.5t-56.5 17t-64 6.5q-60 0 -105 -18t-70 -51t-25 -78q0 -44 21.5 -75.5t60 -48t88.5 -16.5q48 0 86 16.5t60.5 48t22.5 75.5l-16 58q0 -35 -13 -54.5t-34.5 -28t-45.5 -8.5q-15 0 -28 4.5
t-20.5 13.5t-7.5 23zM119 308q11 7 34 15.5t52.5 15.5t62.5 7q38 0 57.5 -17.5t19.5 -45.5v-283h165v322q0 49 -29.5 83t-80.5 51.5t-116 17.5q-62 0 -119 -16.5t-101 -35.5zM474 -106q-10 -10 -23 -15t-27 -5q-16 0 -23.5 9t-7.5 25q0 15 8 30.5t25 31t43 30.5l-41 25
q-35 -18 -67 -39t-52.5 -46.5t-20.5 -59.5q0 -33 16.5 -55.5t42.5 -33.5t56 -11q44 0 68.5 12.5t35.5 27.5z" />
    <glyph glyph-name="Cacute" unicode="&#x106;" horiz-adv-x="705" 
d="M245 350q0 59 26.5 100.5t70.5 63t97 21.5q50 0 87 -13t66 -33.5t51 -43.5v204q-41 31 -90.5 50t-126.5 19q-87 0 -160 -26t-125 -75t-80.5 -116.5t-28.5 -150.5t28.5 -150.5t80.5 -116.5t125 -75t160 -26q77 0 126.5 19.5t90.5 49.5v204q-22 -23 -51 -43.5t-66 -33.5
t-87 -13q-53 0 -97 21.5t-70.5 63t-26.5 100.5zM556 928l-127 56l-150 -160l97 -46z" />
    <glyph glyph-name="cacute" unicode="&#x107;" horiz-adv-x="498" 
d="M208 230q0 30 15 54t41 38t56 14q21 0 45 -6.5t46.5 -20.5t36.5 -36v162q-24 14 -57 24.5t-87 10.5q-79 0 -141 -29.5t-97.5 -83t-35.5 -127.5q0 -73 35.5 -127t97.5 -83.5t141 -29.5q54 0 87 10.5t57 25.5v162q-14 -21 -34.5 -35.5t-44.5 -21.5t-49 -7q-30 0 -56 12.5
t-41 36.5t-15 57zM434 681l-127 56l-150 -160l97 -46z" />
    <glyph glyph-name="Ccircumflex" unicode="&#x108;" horiz-adv-x="705" 
d="M245 350q0 59 26.5 100.5t70.5 63t97 21.5q50 0 87 -13t66 -33.5t51 -43.5v204q-41 31 -90.5 50t-126.5 19q-87 0 -160 -26t-125 -75t-80.5 -116.5t-28.5 -150.5t28.5 -150.5t80.5 -116.5t125 -75t160 -26q77 0 126.5 19.5t90.5 49.5v204q-22 -23 -51 -43.5t-66 -33.5
t-87 -13q-53 0 -97 21.5t-70.5 63t-26.5 100.5zM426 861l86 -83l123 80l-209 140l-208 -140l123 -80z" />
    <glyph glyph-name="ccircumflex" unicode="&#x109;" horiz-adv-x="498" 
d="M208 230q0 30 15 54t41 38t56 14q21 0 45 -6.5t46.5 -20.5t36.5 -36v162q-24 14 -57 24.5t-87 10.5q-79 0 -141 -29.5t-97.5 -83t-35.5 -127.5q0 -73 35.5 -127t97.5 -83.5t141 -29.5q54 0 87 10.5t57 25.5v162q-14 -21 -34.5 -35.5t-44.5 -21.5t-49 -7q-30 0 -56 12.5
t-41 36.5t-15 57zM264 614l86 -83l122 80l-208 140l-208 -140l122 -80z" />
    <glyph glyph-name="Cdotaccent" unicode="&#x10a;" horiz-adv-x="705" 
d="M245 350q0 59 26.5 100.5t70.5 63t97 21.5q50 0 87 -13t66 -33.5t51 -43.5v204q-41 31 -90.5 50t-126.5 19q-87 0 -160 -26t-125 -75t-80.5 -116.5t-28.5 -150.5t28.5 -150.5t80.5 -116.5t125 -75t160 -26q77 0 126.5 19.5t90.5 49.5v204q-22 -23 -51 -43.5t-66 -33.5
t-87 -13q-53 0 -97 21.5t-70.5 63t-26.5 100.5zM296 868q0 -40 28.5 -65t69.5 -25t69.5 25t28.5 65t-28.5 64.5t-69.5 24.5t-69.5 -24.5t-28.5 -64.5z" />
    <glyph glyph-name="cdotaccent" unicode="&#x10b;" horiz-adv-x="498" 
d="M208 230q0 30 15 54t41 38t56 14q21 0 45 -6.5t46.5 -20.5t36.5 -36v162q-24 14 -57 24.5t-87 10.5q-79 0 -141 -29.5t-97.5 -83t-35.5 -127.5q0 -73 35.5 -127t97.5 -83.5t141 -29.5q54 0 87 10.5t57 25.5v162q-14 -21 -34.5 -35.5t-44.5 -21.5t-49 -7q-30 0 -56 12.5
t-41 36.5t-15 57zM174 629q0 -40 28.5 -65t69.5 -25t69.5 25t28.5 65t-28.5 64.5t-69.5 24.5t-69.5 -24.5t-28.5 -64.5z" />
    <glyph glyph-name="Ccaron" unicode="&#x10c;" horiz-adv-x="705" 
d="M245 350q0 59 26.5 100.5t70.5 63t97 21.5q50 0 87 -13t66 -33.5t51 -43.5v204q-41 31 -90.5 50t-126.5 19q-87 0 -160 -26t-125 -75t-80.5 -116.5t-28.5 -150.5t28.5 -150.5t80.5 -116.5t125 -75t160 -26q77 0 126.5 19.5t90.5 49.5v204q-22 -23 -51 -43.5t-66 -33.5
t-87 -13q-53 0 -97 21.5t-70.5 63t-26.5 100.5zM426 916l-85 82l-123 -80l208 -140l209 140l-123 80z" />
    <glyph glyph-name="ccaron" unicode="&#x10d;" horiz-adv-x="498" 
d="M208 230q0 30 15 54t41 38t56 14q21 0 45 -6.5t46.5 -20.5t36.5 -36v162q-24 14 -57 24.5t-87 10.5q-79 0 -141 -29.5t-97.5 -83t-35.5 -127.5q0 -73 35.5 -127t97.5 -83.5t141 -29.5q54 0 87 10.5t57 25.5v162q-14 -21 -34.5 -35.5t-44.5 -21.5t-49 -7q-30 0 -56 12.5
t-41 36.5t-15 57zM264 668l-86 83l-122 -80l208 -140l208 140l-122 80z" />
    <glyph glyph-name="Dcaron" unicode="&#x10e;" horiz-adv-x="749" 
d="M72 700v-700h201v700h-201zM334 0q119 0 204.5 42.5t132 121t46.5 186.5q0 109 -46.5 187t-132 120.5t-204.5 42.5h-130v-170h122q35 0 68.5 -7.5t60.5 -27t43.5 -55t16.5 -90.5t-16.5 -90.5t-43.5 -55t-60.5 -27t-68.5 -7.5h-122v-170h130zM389 916l-86 82l-123 -80
l209 -140l208 140l-122 80z" />
    <glyph glyph-name="dcaron" unicode="&#x10f;" horiz-adv-x="631" 
d="M404 780v-780h173v780h-173zM31 230q0 -78 31.5 -131.5t81 -81t103.5 -27.5q58 0 103 29t71.5 83t26.5 128q0 75 -26.5 128.5t-71.5 82.5t-103 29q-54 0 -103.5 -27.5t-81 -80.5t-31.5 -132zM213 230q0 31 13 54.5t35 36.5t48 13q23 0 45 -12.5t36 -35.5t14 -56t-14 -56
t-36 -35.5t-45 -12.5q-26 0 -48 13t-35 37t-13 54zM695 780l-88 -259l130 -24l130 250z" />
    <glyph glyph-name="Dcroat" unicode="&#x110;" horiz-adv-x="749" 
d="M5 294h356v107h-356v-107zM72 700v-700h201v700h-201zM334 0q119 0 204.5 42.5t132 121t46.5 186.5q0 109 -46.5 187t-132 120.5t-204.5 42.5h-130v-170h122q35 0 68.5 -7.5t60.5 -27t43.5 -55t16.5 -90.5t-16.5 -90.5t-43.5 -55t-60.5 -27t-68.5 -7.5h-122v-170h130z
" />
    <glyph glyph-name="dcroat" unicode="&#x111;" horiz-adv-x="631" 
d="M295 558h373v107h-373v-107zM404 780v-780h173v780h-173zM31 230q0 -78 31.5 -131.5t81 -81t103.5 -27.5q58 0 103 29t71.5 83t26.5 128q0 75 -26.5 128.5t-71.5 82.5t-103 29q-54 0 -103.5 -27.5t-81 -80.5t-31.5 -132zM213 230q0 31 13 54.5t35 36.5t48 13
q17 0 34 -6.5t31 -20.5t22 -33t8 -44t-8 -44t-22 -33t-31 -20.5t-34 -6.5q-26 0 -48 13t-35 37t-13 54z" />
    <glyph glyph-name="Emacron" unicode="&#x112;" horiz-adv-x="619" 
d="M204 0h353v157h-353v-157zM204 543h353v157h-353v-157zM204 288h333v152h-333v-152zM72 700v-700h186v700h-186zM125 778h378v148h-378v-148z" />
    <glyph glyph-name="emacron" unicode="&#x113;" horiz-adv-x="591" 
d="M126 194h429q2 14 2 26v18q0 73 -29 124.5t-86.5 79.5t-142.5 28q-79 0 -134.5 -24t-87.5 -67t-42 -100q-2 -12 -3 -24t-1 -25q0 -69 31 -123.5t92 -85.5t151 -31q69 0 117 17.5t82 49t57 74.5l-156 31q-10 -17 -25 -28.5t-35 -18t-46 -6.5q-25 0 -46.5 11.5t-34.5 38
t-13 71.5l2 22q0 35 10.5 59t30 36.5t47.5 12.5q24 0 40 -9t25 -26t12 -42h-246v-89zM111 531h378v147h-378v-147z" />
    <glyph glyph-name="Ebreve" unicode="&#x114;" horiz-adv-x="619" 
d="M204 0h353v157h-353v-157zM204 543h353v157h-353v-157zM204 288h333v152h-333v-152zM72 700v-700h186v700h-186zM148 926q0 -42 19.5 -75.5t57 -53t89.5 -19.5q53 0 90 19.5t56.5 53t19.5 75.5h-107q0 -19 -9 -31t-22 -18t-28 -6t-28.5 6t-22 18t-8.5 31h-107z" />
    <glyph glyph-name="ebreve" unicode="&#x115;" horiz-adv-x="591" 
d="M126 194h429q2 14 2 26v18q0 73 -29 124.5t-86.5 79.5t-142.5 28q-79 0 -134.5 -24t-87.5 -67t-42 -100q-2 -12 -3 -24t-1 -25q0 -69 31 -123.5t92 -85.5t151 -31q69 0 117 17.5t82 49t57 74.5l-156 31q-10 -17 -25 -28.5t-35 -18t-46 -6.5q-25 0 -46.5 11.5t-34.5 38
t-13 71.5l2 22q0 35 10.5 59t30 36.5t47.5 12.5q24 0 40 -9t25 -26t12 -42h-246v-89zM133 679q0 -42 19.5 -76t57 -53t89.5 -19q53 0 90 19t56.5 53t19.5 76h-107q0 -19 -8.5 -31t-22 -18t-28.5 -6t-28 6t-21.5 18t-8.5 31h-108z" />
    <glyph glyph-name="Edotaccent" unicode="&#x116;" horiz-adv-x="619" 
d="M204 0h353v157h-353v-157zM204 543h353v157h-353v-157zM204 288h333v152h-333v-152zM72 700v-700h186v700h-186zM216 868q0 -40 28.5 -65t69.5 -25t69.5 25t28.5 65t-28.5 64.5t-69.5 24.5t-69.5 -24.5t-28.5 -64.5z" />
    <glyph glyph-name="edotaccent" unicode="&#x117;" horiz-adv-x="591" 
d="M126 194h429q2 14 2 26v18q0 73 -29 124.5t-86.5 79.5t-142.5 28q-79 0 -134.5 -24t-87.5 -67t-42 -100q-2 -12 -3 -24t-1 -25q0 -69 31 -123.5t92 -85.5t151 -31q69 0 117 17.5t82 49t57 74.5l-156 31q-10 -17 -25 -28.5t-35 -18t-46 -6.5q-25 0 -46.5 11.5t-34.5 38
t-13 71.5l2 22q0 35 10.5 59t30 36.5t47.5 12.5q24 0 40 -9t25 -26t12 -42h-246v-89zM202 621q0 -40 28.5 -65t68.5 -25q41 0 69.5 25t28.5 65q0 39 -28.5 64t-69.5 25q-40 0 -68.5 -25t-28.5 -64z" />
    <glyph glyph-name="Eogonek" unicode="&#x118;" horiz-adv-x="619" 
d="M204 0h353v157h-353v-157zM204 543h353v157h-353v-157zM204 288h333v152h-333v-152zM72 700v-700h186v700h-186zM409 -106q-10 -10 -23 -15t-27 -5q-16 0 -23.5 9t-7.5 25q0 15 8 30.5t25 31t43 30.5l-41 25q-35 -18 -67 -39t-52.5 -46.5t-20.5 -59.5q0 -33 16.5 -55.5
t42.5 -33.5t56 -11q44 0 68.5 12.5t35.5 27.5z" />
    <glyph glyph-name="eogonek" unicode="&#x119;" horiz-adv-x="591" 
d="M126 194h429q2 14 2 26v18q0 73 -29 124.5t-86.5 79.5t-142.5 28q-79 0 -134.5 -24t-87.5 -67t-42 -100q-2 -12 -3 -24t-1 -25q0 -69 31 -123.5t92 -85.5t151 -31q51 0 87 11.5t64 31.5t52.5 45.5t52.5 52.5l-156 31q-10 -17 -25 -28.5t-35 -18t-46 -6.5
q-25 0 -46.5 11.5t-34.5 38t-13 71.5l2 22q0 35 10.5 59t30 36.5t47.5 12.5q24 0 40 -9t25 -26t12 -42h-246v-89zM540 -25q-10 -10 -23 -15t-27 -5q-16 0 -24 9t-8 23q0 15 9.5 31t32.5 42.5t60 70.5l-66 -25q-25 -14 -50 -30t-45.5 -33.5t-32.5 -38.5t-12 -46q0 -33 17 -55
t43 -32t53 -10q44 0 69.5 12.5t36.5 27.5z" />
    <glyph glyph-name="Ecaron" unicode="&#x11a;" horiz-adv-x="619" 
d="M204 0h353v157h-353v-157zM204 543h353v157h-353v-157zM204 288h333v152h-333v-152zM72 700v-700h186v700h-186zM314 916l-86 82l-123 -80l209 -140l208 140l-122 80z" />
    <glyph glyph-name="ecaron" unicode="&#x11b;" horiz-adv-x="591" 
d="M126 194h429q2 14 2 26v18q0 73 -29 124.5t-86.5 79.5t-142.5 28q-79 0 -134.5 -24t-87.5 -67t-42 -100q-2 -12 -3 -24t-1 -25q0 -69 31 -123.5t92 -85.5t151 -31q69 0 117 17.5t82 49t57 74.5l-156 31q-10 -17 -25 -28.5t-35 -18t-46 -6.5q-25 0 -46.5 11.5t-34.5 38
t-13 71.5l2 22q0 35 10.5 59t30 36.5t47.5 12.5q24 0 40 -9t25 -26t12 -42h-246v-89zM299 668l-85 83l-123 -80l208 -140l209 140l-123 80z" />
    <glyph glyph-name="Gcircumflex" unicode="&#x11c;" horiz-adv-x="826" 
d="M425 247h173q-9 -23 -23.5 -43t-34.5 -34.5t-47 -22t-62 -7.5q-58 0 -102 25t-69 72.5t-25 112.5q0 66 26.5 111t71 68t98.5 23q56 0 91 -26t56 -64l177 85q-34 49 -80 87.5t-106.5 61t-137.5 22.5q-85 0 -158 -25.5t-127 -74t-84 -116.5t-30 -152t29 -153.5t81.5 -119
t124 -76.5t156.5 -27q92 0 163 32.5t118 89.5t69 133t15 162h-363v-144zM431 861l86 -83l123 80l-209 140l-208 -140l123 -80z" />
    <glyph glyph-name="gcircumflex" unicode="&#x11d;" horiz-adv-x="622" 
d="M41 -34q7 -61 35 -108.5t84 -73.5t148 -26q74 0 132.5 25t93.5 80.5t35 146.5v450h-165v-450q0 -38 -13.5 -64t-37 -39.5t-54.5 -13.5q-24 0 -44 7t-32 23t-16 43h-166zM31 238q0 -78 31.5 -129.5t81 -77t103.5 -25.5q58 0 103 27t71.5 79t26.5 126q0 75 -26.5 126.5
t-71.5 78.5t-103 27q-54 0 -103.5 -25.5t-81 -76.5t-31.5 -130zM213 238q0 31 13 52.5t35 32.5t48 11q17 0 34 -5.5t31 -17.5t22 -30t8 -43q0 -33 -14 -54t-36 -31.5t-45 -10.5q-26 0 -48 11t-35 33t-13 52zM336 614l85 -83l123 80l-208 140l-209 -140l123 -80z" />
    <glyph glyph-name="Gbreve" unicode="&#x11e;" horiz-adv-x="826" 
d="M425 247h173q-9 -23 -23.5 -43t-34.5 -34.5t-47 -22t-62 -7.5q-58 0 -102 25t-69 72.5t-25 112.5q0 66 26.5 111t71 68t98.5 23q56 0 91 -26t56 -64l177 85q-34 49 -80 87.5t-106.5 61t-137.5 22.5q-85 0 -158 -25.5t-127 -74t-84 -116.5t-30 -152t29 -153.5t81.5 -119
t124 -76.5t156.5 -27q92 0 163 32.5t118 89.5t69 133t15 162h-363v-144zM265 926q0 -42 19.5 -75.5t57 -53t89.5 -19.5q53 0 90 19.5t56.5 53t19.5 75.5h-107q0 -19 -8.5 -31t-22 -18t-28.5 -6t-28 6t-21.5 18t-8.5 31h-108z" />
    <glyph glyph-name="gbreve" unicode="&#x11f;" horiz-adv-x="622" 
d="M41 -34q7 -61 35 -108.5t84 -73.5t148 -26q74 0 132.5 25t93.5 80.5t35 146.5v450h-165v-450q0 -38 -13.5 -64t-37 -39.5t-54.5 -13.5q-24 0 -44 7t-32 23t-16 43h-166zM31 238q0 -78 31.5 -129.5t81 -77t103.5 -25.5q58 0 103 27t71.5 79t26.5 126q0 75 -26.5 126.5
t-71.5 78.5t-103 27q-54 0 -103.5 -25.5t-81 -76.5t-31.5 -130zM213 238q0 31 13 52.5t35 32.5t48 11q17 0 34 -5.5t31 -17.5t22 -30t8 -43q0 -33 -14 -54t-36 -31.5t-45 -10.5q-26 0 -48 11t-35 33t-13 52zM170 679q0 -42 19.5 -76t57 -53t89.5 -19q53 0 90 19t56.5 53
t19.5 76h-108q0 -19 -8.5 -31t-22 -18t-27.5 -6q-15 0 -28.5 6t-22 18t-8.5 31h-107z" />
    <glyph glyph-name="Gdotaccent" unicode="&#x120;" horiz-adv-x="826" 
d="M425 247h173q-9 -23 -23.5 -43t-34.5 -34.5t-47 -22t-62 -7.5q-58 0 -102 25t-69 72.5t-25 112.5q0 66 26.5 111t71 68t98.5 23q56 0 91 -26t56 -64l177 85q-34 49 -80 87.5t-106.5 61t-137.5 22.5q-85 0 -158 -25.5t-127 -74t-84 -116.5t-30 -152t29 -153.5t81.5 -119
t124 -76.5t156.5 -27q92 0 163 32.5t118 89.5t69 133t15 162h-363v-144zM334 868q0 -40 28.5 -65t68.5 -25q41 0 69.5 25t28.5 65t-28.5 64.5t-69.5 24.5q-40 0 -68.5 -24.5t-28.5 -64.5z" />
    <glyph glyph-name="gdotaccent" unicode="&#x121;" horiz-adv-x="622" 
d="M41 -34q7 -61 35 -108.5t84 -73.5t148 -26q74 0 132.5 25t93.5 80.5t35 146.5v450h-165v-450q0 -38 -13.5 -64t-37 -39.5t-54.5 -13.5q-24 0 -44 7t-32 23t-16 43h-166zM31 238q0 -78 31.5 -129.5t81 -77t103.5 -25.5q58 0 103 27t71.5 79t26.5 126q0 75 -26.5 126.5
t-71.5 78.5t-103 27q-54 0 -103.5 -25.5t-81 -76.5t-31.5 -130zM213 238q0 31 13 52.5t35 32.5t48 11q17 0 34 -5.5t31 -17.5t22 -30t8 -43q0 -33 -14 -54t-36 -31.5t-45 -10.5q-26 0 -48 11t-35 33t-13 52zM218 628q0 -40 28.5 -64.5t68.5 -24.5q41 0 69.5 24.5t28.5 64.5
t-28.5 65t-69.5 25q-40 0 -68.5 -25t-28.5 -65z" />
    <glyph glyph-name="uni0122" unicode="&#x122;" horiz-adv-x="826" 
d="M425 247h173q-9 -23 -23.5 -43t-34.5 -34.5t-47 -22t-62 -7.5q-58 0 -102 25t-69 72.5t-25 112.5q0 66 26.5 111t71 68t98.5 23q56 0 91 -26t56 -64l177 85q-34 49 -80 87.5t-106.5 61t-137.5 22.5q-85 0 -158 -25.5t-127 -74t-84 -116.5t-30 -152t29 -153.5t81.5 -119
t124 -76.5t156.5 -27q92 0 163 32.5t118 89.5t69 133t15 162h-363v-144zM341 -86l-88 -259l131 -24l130 250z" />
    <glyph glyph-name="uni0123" unicode="&#x123;" horiz-adv-x="570" 
d="M41 -34q7 -61 35 -108.5t84 -73.5t148 -26q74 0 132.5 25t93.5 80.5t35 146.5v450h-165v-450q0 -38 -13.5 -64t-37 -39.5t-54.5 -13.5q-24 0 -44 7t-32 23t-16 43h-166zM31 238q0 -78 31.5 -129.5t81 -77t103.5 -25.5q58 0 103 27t71.5 79t26.5 126q0 75 -26.5 126.5
t-71.5 78.5t-103 27q-54 0 -103.5 -25.5t-81 -76.5t-31.5 -130zM213 238q0 31 13 52.5t35 32.5t48 11q17 0 34 -5.5t31 -17.5t22 -30t8 -43q0 -33 -14 -54t-36 -31.5t-45 -10.5q-26 0 -48 11t-35 33t-13 52zM318 540l127 242l-126 45l-167 -227z" />
    <glyph glyph-name="Hcircumflex" unicode="&#x124;" horiz-adv-x="808" 
d="M119 279h544v173h-544v-173zM542 700v-700h194v700h-194zM72 700v-700h194v700h-194zM404 861l86 -83l122 80l-208 140l-208 -140l122 -80z" />
    <glyph glyph-name="hcircumflex" unicode="&#x125;" horiz-adv-x="581" 
d="M228 780h-173v-780h173v780zM354 280v-280h173v306q0 56 -15 94.5t-49 58.5t-94 20t-97 -27t-54.5 -72t-17.5 -100h28q0 25 8.5 41.5t24 25t35.5 8.5q34 0 46 -19.5t12 -55.5zM143 923l86 -83l122 80l-208 140l-208 -140l122 -80z" />
    <glyph glyph-name="Hbar" unicode="&#x126;" horiz-adv-x="808" 
d="M119 279h544v173h-544v-173zM542 700v-700h194v700h-194zM72 700v-700h194v700h-194zM5 536h798v115h-798v-115z" />
    <glyph glyph-name="hbar" unicode="&#x127;" horiz-adv-x="581" 
d="M228 780h-173v-780h173v780zM354 280v-280h173v306q0 56 -15 94.5t-49 58.5t-94 20t-96.5 -27t-53.5 -72t-17 -100h26q0 25 8.5 41.5t24 25t35.5 8.5q34 0 46 -19.5t12 -55.5zM5 589h337v147h-337v-147z" />
    <glyph glyph-name="Itilde" unicode="&#x128;" horiz-adv-x="342" 
d="M72 700v-700h198v700h-198zM-34 852l76 -69q0 8 4 20t14.5 21.5t28.5 9.5q26 0 48.5 -14t46 -27.5t50.5 -13.5q33 0 62.5 14.5t51 35.5t29.5 39l-79 83q-15 -24 -31.5 -39t-36.5 -15q-22 0 -37.5 8t-29.5 18.5t-31.5 18.5t-42.5 8q-34 0 -60 -14.5t-42 -36.5t-21 -47z
" />
    <glyph glyph-name="itilde" unicode="&#x129;" horiz-adv-x="281" 
d="M57 460v-460h166v460h-166zM-65 605l77 -69q0 8 4 20t14 21.5t28 9.5q26 0 48.5 -14t46 -27.5t50.5 -13.5q33 0 63 14.5t51 35.5t29 39l-78 83q-15 -24 -32 -39t-37 -15q-22 0 -37.5 8t-29.5 18.5t-31.5 18.5t-41.5 8q-35 0 -61 -14.5t-42 -36.5t-21 -47z" />
    <glyph glyph-name="Imacron" unicode="&#x12a;" horiz-adv-x="342" 
d="M72 700v-700h198v700h-198zM-18 778h378v148h-378v-148z" />
    <glyph glyph-name="imacron" unicode="&#x12b;" horiz-adv-x="281" 
d="M57 460v-460h166v460h-166zM-49 531h378v147h-378v-147z" />
    <glyph glyph-name="Ibreve" unicode="&#x12c;" horiz-adv-x="342" 
d="M72 700v-700h198v700h-198zM5 926q0 -42 19.5 -75.5t57 -53t89.5 -19.5q53 0 90 19.5t56.5 53t19.5 75.5h-108q0 -19 -8.5 -31t-22 -18t-27.5 -6q-15 0 -28.5 6t-22 18t-8.5 31h-107z" />
    <glyph glyph-name="ibreve" unicode="&#x12d;" horiz-adv-x="281" 
d="M57 460v-460h166v460h-166zM-26 679q0 -42 19.5 -76t57 -53t89.5 -19q53 0 90 19t56.5 53t19.5 76h-108q0 -19 -8.5 -31t-21.5 -18t-28 -6t-28.5 6t-22 18t-8.5 31h-107z" />
    <glyph glyph-name="Iogonek" unicode="&#x12e;" horiz-adv-x="342" 
d="M72 700v-700h198v700h-198zM241 -103q-10 -10 -23 -15t-27 -5q-16 0 -24 9t-8 24t8.5 30.5t26 31t43.5 30.5l-42 25q-35 -18 -67 -38.5t-52.5 -46.5t-20.5 -60q0 -33 16.5 -55.5t43 -33.5t56.5 -11q44 0 68.5 12.5t35.5 27.5z" />
    <glyph glyph-name="iogonek" unicode="&#x12f;" horiz-adv-x="281" 
d="M43 627q0 -39 28.5 -64t68.5 -25q41 0 69.5 25t28.5 64q0 40 -28.5 65t-69.5 25q-40 0 -68.5 -25t-28.5 -65zM57 460v-460h166v460h-166zM196 -106q-10 -10 -23 -15t-27 -5q-16 0 -24 9t-8 25q0 15 8.5 30.5t25.5 31t43 30.5l-41 25q-35 -18 -67 -39t-52.5 -46.5
t-20.5 -59.5q0 -33 16.5 -55.5t42.5 -33.5t56 -11q44 0 68.5 12.5t35.5 27.5z" />
    <glyph glyph-name="Idotaccent" unicode="&#x130;" horiz-adv-x="342" 
d="M72 700v-700h198v700h-198zM73 868q0 -40 28.5 -65t68.5 -25q41 0 69.5 25t28.5 65t-28.5 64.5t-69.5 24.5q-40 0 -68.5 -24.5t-28.5 -64.5z" />
    <glyph glyph-name="dotlessi" unicode="&#x131;" horiz-adv-x="281" 
d="M57 460v-460h166v460h-166z" />
    <glyph glyph-name="IJ" unicode="&#x132;" horiz-adv-x="664" 
d="M233 -52l-106 -134q24 -14 57 -27t72.5 -22t81.5 -9q50 0 96 10t81 32.5t56 59.5t21 90v752h-214v-706q0 -43 -20.5 -60.5t-43.5 -17.5q-20 0 -42 10t-39 22zM72 700v-700h198v700h-198z" />
    <glyph glyph-name="ij" unicode="&#x133;" horiz-adv-x="555" 
d="M317 627q0 -39 28.5 -64t69.5 -25q40 0 68.5 25t28.5 64q0 40 -28.5 65t-68.5 25q-41 0 -69.5 -25t-28.5 -65zM238 -66l-66 -124q12 -10 30 -23t45 -22t64 -9q62 0 103.5 21t62 59t20.5 88v536h-165v-490q0 -21 -5.5 -34.5t-16.5 -20.5t-26 -7q-14 0 -25 6.5t-21 19.5z
M43 627q0 -39 28.5 -64t68.5 -25q41 0 69.5 25t28.5 64q0 40 -28.5 65t-69.5 25q-40 0 -68.5 -25t-28.5 -65zM57 460v-460h166v460h-166z" />
    <glyph glyph-name="Jcircumflex" unicode="&#x134;" horiz-adv-x="357" 
d="M-73 -52l-107 -134q25 -14 57.5 -27t72 -22t81.5 -9q51 0 96.5 10t81 32.5t56 59.5t20.5 90v752h-213v-706q0 -43 -20.5 -60.5t-43.5 -17.5q-21 0 -43 10t-38 22zM178 861l86 -83l123 80l-209 140l-208 -140l122 -80z" />
    <glyph glyph-name="jcircumflex" unicode="&#x135;" horiz-adv-x="278" 
d="M-38 -66l-66 -124q12 -10 30 -23t45 -22t64 -9q62 0 103.5 21t62 59t20.5 88v536h-165v-490q0 -21 -5.5 -34.5t-16.5 -20.5t-26 -7q-14 0 -25 6.5t-21 19.5zM138 614l86 -83l122 80l-208 140l-209 -140l123 -80z" />
    <glyph glyph-name="uni0136" unicode="&#x136;" horiz-adv-x="739" 
d="M72 700v-700h202v700h-202zM501 700l-283 -334l289 -366h235l-293 372l278 328h-226zM332 -60l-88 -259l131 -24l131 250z" />
    <glyph glyph-name="uni0137" unicode="&#x137;" horiz-adv-x="618" 
d="M54 780v-780h165v780h-165zM385 460l-196 -190l220 -270h200l-215 270l195 190h-204zM257 -60l-88 -259l130 -24l131 250z" />
    <glyph glyph-name="kgreenlandic" unicode="&#x138;" horiz-adv-x="618" 
d="M54 460v-460h165v460h-165zM385 460l-196 -190l220 -270h200l-215 270l195 190h-204z" />
    <glyph glyph-name="Lacute" unicode="&#x139;" horiz-adv-x="551" 
d="M72 700v-700h477v165h-283v535h-194zM481 928l-127 56l-150 -160l97 -46z" />
    <glyph glyph-name="lacute" unicode="&#x13a;" horiz-adv-x="282" 
d="M55 780v-780h173v780h-173zM312 990l-127 56l-150 -160l97 -46z" />
    <glyph glyph-name="uni013B" unicode="&#x13b;" horiz-adv-x="551" 
d="M72 700v-700h477v165h-283v535h-194zM268 -60l-88 -259l131 -24l130 250z" />
    <glyph glyph-name="uni013C" unicode="&#x13c;" horiz-adv-x="282" 
d="M55 780v-780h173v780h-173zM99 -60l-88 -259l130 -24l131 250z" />
    <glyph glyph-name="Lcaron" unicode="&#x13d;" horiz-adv-x="551" 
d="M72 700v-700h477v165h-283v535h-194zM437 718l-88 -259l131 -24l130 250z" />
    <glyph glyph-name="lcaron" unicode="&#x13e;" horiz-adv-x="282" 
d="M55 780v-780h173v780h-173zM366 780l-88 -259l130 -24l130 250z" />
    <glyph glyph-name="Ldot" unicode="&#x13f;" horiz-adv-x="551" 
d="M72 700v-700h477v165h-283v535h-194zM344 435q0 -42 29.5 -72.5t76.5 -30.5t76 30.5t29 72.5q0 43 -29 73.5t-76 30.5t-76.5 -30.5t-29.5 -73.5z" />
    <glyph glyph-name="ldot" unicode="&#x140;" horiz-adv-x="508" 
d="M55 780v-780h173v780h-173zM263 407q0 -42 30 -72.5t76 -30.5q47 0 76.5 30.5t29.5 72.5t-29.5 72.5t-76.5 30.5q-46 0 -76 -30.5t-30 -72.5z" />
    <glyph glyph-name="Lslash" unicode="&#x141;" horiz-adv-x="559" 
d="M5 300l391 266l-44 80l-391 -267zM72 700v-700h477v165h-283v535h-194z" />
    <glyph glyph-name="lslash" unicode="&#x142;" horiz-adv-x="282" 
d="M-11 300l355 238l-44 80l-355 -239zM55 780v-780h173v780h-173z" />
    <glyph glyph-name="Nacute" unicode="&#x143;" horiz-adv-x="799" 
d="M541 700v-356l-469 391v-735h186v356l469 -391v735h-186zM544 913l-128 56l-150 -160l98 -46z" />
    <glyph glyph-name="nacute" unicode="&#x144;" 
d="M228 460h-173v-460h173v460zM354 280v-280h181v298q0 83 -38.5 128t-127.5 45q-60 0 -96.5 -27t-53.5 -72t-17 -100l26 8q0 25 8.5 41.5t24 25t35.5 8.5q34 0 46 -19.5t12 -55.5zM467 681l-128 56l-150 -160l98 -46z" />
    <glyph glyph-name="uni0145" unicode="&#x145;" horiz-adv-x="799" 
d="M353 -59l-88 -259l131 -24l129 250zM541 700v-356l-469 391v-735h186v356l469 -391v735h-186z" />
    <glyph glyph-name="uni0146" unicode="&#x146;" 
d="M228 460h-173v-460h173v460zM354 280v-280h181v298q0 83 -38.5 128t-127.5 45q-60 0 -97 -27t-54.5 -72t-17.5 -100l28 8q0 25 8.5 41.5t24 25t35.5 8.5q34 0 46 -19.5t12 -55.5zM252 -60l-88 -259l131 -24l130 250z" />
    <glyph glyph-name="Ncaron" unicode="&#x147;" horiz-adv-x="799" 
d="M368 908l-86 83l-123 -80l209 -140l208 140l-122 80zM541 700v-356l-469 391v-735h186v356l469 -391v735h-186z" />
    <glyph glyph-name="ncaron" unicode="&#x148;" 
d="M228 460h-173v-460h173v460zM354 280v-280h181v298q0 83 -38.5 128t-127.5 45q-60 0 -97 -27t-54.5 -72t-17.5 -100l28 8q0 25 8.5 41.5t24 25t35.5 8.5q34 0 46 -19.5t12 -55.5zM294 668l-86 83l-122 -80l208 -140l209 140l-123 80z" />
    <glyph glyph-name="napostrophe" unicode="&#x149;" horiz-adv-x="780" 
d="M418 460h-172v-460h172v460zM545 280v-280h180v298q0 83 -38 128t-128 45q-59 0 -96.5 -27t-55 -72t-17.5 -100l28 8q0 25 8.5 41.5t24 25t36.5 8.5q34 0 46 -19.5t12 -55.5zM106 700l-52 -262h123l104 262h-175z" />
    <glyph glyph-name="Eng" unicode="&#x14a;" horiz-adv-x="799" 
d="M542 -214q57 0 99 21t64 58.5t22 89.5v745h-186v-356l-469 391v-735h186v356l305 -259v-96q0 -20 -6 -34t-16.5 -21t-25.5 -7q-14 0 -24.5 6t-21.5 19l-66 -124q34 -29 66 -41.5t73 -12.5z" />
    <glyph glyph-name="eng" unicode="&#x14b;" 
d="M333 -244q96 0 149 44t53 124v374q0 88 -41 130.5t-125 42.5q-48 0 -84 -20t-57 -58v67h-173v-460h173v276q0 26 8 44t23 26.5t37 8.5q31 0 44.5 -17.5t13.5 -57.5v-310q0 -30 -12.5 -46t-35.5 -16q-25 0 -46 26l-66 -124q34 -28 67 -41t72 -13z" />
    <glyph glyph-name="Omacron" unicode="&#x14c;" horiz-adv-x="830" 
d="M237 350q0 57 22 100t62 67.5t94 24.5q57 0 96.5 -24.5t60.5 -67.5t21 -100q0 -56 -22 -99.5t-61.5 -68t-94.5 -24.5q-54 0 -94 24.5t-62 68t-22 99.5zM32 350q0 -82 28 -151t79.5 -119.5t121.5 -78t154 -27.5t154.5 27.5t121.5 78t79 119.5t28 151q0 83 -28.5 150.5
t-80.5 116t-121.5 75t-152.5 26.5q-81 0 -150.5 -26.5t-121.5 -75t-81.5 -116t-29.5 -150.5zM226 778h378v148h-378v-148z" />
    <glyph glyph-name="omacron" unicode="&#x14d;" horiz-adv-x="602" 
d="M31 230q0 -73 35 -127t96.5 -83.5t138.5 -29.5q78 0 139 29.5t96.5 83.5t35.5 127q0 74 -35.5 128t-96.5 83.5t-139 29.5q-77 0 -138.5 -29.5t-96.5 -83.5t-35 -128zM209 230q0 32 12.5 54.5t33.5 34.5t46 12t46 -12t34 -34.5t13 -54.5t-13 -54.5t-34 -34t-46 -11.5
t-46 11.5t-33.5 34t-12.5 54.5zM113 531h377v147h-377v-147z" />
    <glyph glyph-name="Obreve" unicode="&#x14e;" horiz-adv-x="830" 
d="M237 350q0 57 22 100t62 67.5t94 24.5q57 0 96.5 -24.5t60.5 -67.5t21 -100q0 -56 -22 -99.5t-61.5 -68t-94.5 -24.5q-54 0 -94 24.5t-62 68t-22 99.5zM32 350q0 -82 28 -151t79.5 -119.5t121.5 -78t154 -27.5t154.5 27.5t121.5 78t79 119.5t28 151q0 83 -28.5 150.5
t-80.5 116t-121.5 75t-152.5 26.5q-81 0 -150.5 -26.5t-121.5 -75t-81.5 -116t-29.5 -150.5zM249 926q0 -42 19.5 -75.5t57 -53t89.5 -19.5q53 0 90 19.5t56.5 53t19.5 75.5h-107q0 -19 -8.5 -31t-22 -18t-28.5 -6t-28 6t-22 18t-9 31h-107z" />
    <glyph glyph-name="obreve" unicode="&#x14f;" horiz-adv-x="602" 
d="M31 230q0 -73 35 -127t96.5 -83.5t138.5 -29.5q78 0 139 29.5t96.5 83.5t35.5 127q0 74 -35.5 128t-96.5 83.5t-139 29.5q-77 0 -138.5 -29.5t-96.5 -83.5t-35 -128zM209 230q0 32 12.5 54.5t33.5 34.5t46 12t46 -12t34 -34.5t13 -54.5t-13 -54.5t-34 -34t-46 -11.5
t-46 11.5t-33.5 34t-12.5 54.5zM135 679q0 -42 19.5 -76t57 -53t89.5 -19q53 0 90 19t56.5 53t19.5 76h-107q0 -19 -8.5 -31t-22 -18t-28.5 -6t-28 6t-22 18t-9 31h-107z" />
    <glyph glyph-name="Ohungarumlaut" unicode="&#x150;" horiz-adv-x="830" 
d="M318 778l148 181l-135 33l-117 -186zM512 778l148 181l-136 33l-117 -186zM237 350q0 57 22 100t62 67.5t94 24.5q57 0 96.5 -24.5t60.5 -67.5t21 -100q0 -56 -22 -99.5t-61.5 -68t-94.5 -24.5q-54 0 -94 24.5t-62 68t-22 99.5zM32 350q0 -82 28 -151t79.5 -119.5
t121.5 -78t154 -27.5t154.5 27.5t121.5 78t79 119.5t28 151q0 83 -28.5 150.5t-80.5 116t-121.5 75t-152.5 26.5q-81 0 -150.5 -26.5t-121.5 -75t-81.5 -116t-29.5 -150.5z" />
    <glyph glyph-name="ohungarumlaut" unicode="&#x151;" horiz-adv-x="602" 
d="M204 530l148 181l-135 33l-117 -186zM398 530l148 181l-136 33l-117 -186zM31 230q0 -73 35 -127t96.5 -83.5t138.5 -29.5q78 0 139 29.5t96.5 83.5t35.5 127q0 74 -35.5 128t-96.5 83.5t-139 29.5q-77 0 -138.5 -29.5t-96.5 -83.5t-35 -128zM209 230q0 32 12.5 54.5
t33.5 34.5t46 12t46 -12t34 -34.5t13 -54.5t-13 -54.5t-34 -34t-46 -11.5t-46 11.5t-33.5 34t-12.5 54.5z" />
    <glyph glyph-name="OE" unicode="&#x152;" horiz-adv-x="985" 
d="M562 288h377v152h-377v-152zM475 670v-640h186v640h-186zM960 157h-388l-24 12h-118q-50 0 -86.5 11t-61 33.5t-36.5 56.5t-12 80t11.5 80t36 56.5t61.5 33.5t87 11h121l17 12h391v157h-569q-76 0 -141.5 -25t-114 -71.5t-75.5 -111t-27 -142.5t27 -142.5t76 -111
t114 -71.5t141 -25h570v157z" />
    <glyph glyph-name="oe" unicode="&#x153;" horiz-adv-x="900" 
d="M683 250v-20l179 -36q1 6 2 20t1 20q0 73 -29 125.5t-76 81.5t-102 29q-59 0 -106.5 -24t-77.5 -67t-40 -100q-2 -12 -3 -24t-1 -25q0 -69 26.5 -123.5t74 -85.5t109.5 -31q50 0 95 19t80 51t54 71l-154 32q-19 -25 -42.5 -41.5t-61.5 -16.5q-29 0 -50 14.5t-32.5 42
t-11.5 68.5l2 30q0 35 12.5 57t32.5 32.5t44 10.5t41 -13t25.5 -37.5t8.5 -59.5zM481 194h381l-18 88h-363v-88zM35 230q0 -74 31 -128t83 -83t114 -29q63 0 108.5 29t70 83t24.5 128q0 75 -24.5 128.5t-70 82.5t-108.5 29q-62 0 -114 -29t-83 -82.5t-31 -128.5zM205 230
q0 33 12 55.5t33 33.5t47 11q27 0 47 -11t31 -33.5t11 -55.5t-11 -55.5t-31 -33.5t-47 -11q-26 0 -47 11t-33 33.5t-12 55.5z" />
    <glyph glyph-name="Racute" unicode="&#x154;" horiz-adv-x="673" 
d="M261 309l184 -309h226l-210 309h-200zM72 700v-700h194v700h-194zM196 536h135q31 0 52 -9t32.5 -26.5t11.5 -42.5t-11.5 -43t-32.5 -27t-52 -9h-135v-147h151q96 0 158.5 29.5t93 83t30.5 121.5q0 69 -30.5 121.5t-93 82.5t-158.5 30h-151v-164zM488 928l-127 56
l-150 -160l97 -46z" />
    <glyph glyph-name="racute" unicode="&#x155;" horiz-adv-x="432" 
d="M224 460h-169v-460h169v460zM355 283l72 149q-11 17 -34 28.5t-48 11.5q-40 0 -76.5 -25.5t-58.5 -68.5t-22 -98l36 -69q0 33 9.5 55t26.5 33t37 11t33.5 -7.5t24.5 -19.5zM411 682l-127 56l-150 -160l97 -46z" />
    <glyph glyph-name="uni0156" unicode="&#x156;" horiz-adv-x="673" 
d="M261 309l184 -309h226l-210 309h-200zM72 700v-700h194v700h-194zM196 536h135q31 0 52 -9t32.5 -26.5t11.5 -42.5t-11.5 -43t-32.5 -27t-52 -9h-135v-147h151q96 0 158.5 29.5t93 83t30.5 121.5q0 69 -30.5 121.5t-93 82.5t-158.5 30h-151v-164zM329 -60l-88 -259
l131 -24l130 250z" />
    <glyph glyph-name="uni0157" unicode="&#x157;" horiz-adv-x="432" 
d="M224 460h-169v-460h169v460zM355 283l72 149q-11 17 -34 28.5t-48 11.5q-40 0 -76.5 -25.5t-58.5 -68.5t-22 -98l36 -69q0 33 9.5 55t26.5 33t37 11t33.5 -7.5t24.5 -19.5zM97 -60l-88 -259l131 -24l129 250z" />
    <glyph glyph-name="Rcaron" unicode="&#x158;" horiz-adv-x="673" 
d="M261 309l184 -309h226l-210 309h-200zM72 700v-700h194v700h-194zM196 536h135q31 0 52 -9t32.5 -26.5t11.5 -42.5t-11.5 -43t-32.5 -27t-52 -9h-135v-147h151q96 0 158.5 29.5t93 83t30.5 121.5q0 69 -30.5 121.5t-93 82.5t-158.5 30h-151v-164zM330 916l-86 82
l-122 -80l208 -140l208 140l-122 80z" />
    <glyph glyph-name="rcaron" unicode="&#x159;" horiz-adv-x="432" 
d="M224 460h-169v-460h169v460zM355 283l72 149q-11 17 -34 28.5t-48 11.5q-40 0 -76.5 -25.5t-58.5 -68.5t-22 -98l36 -69q0 33 9.5 55t26.5 33t37 11t33.5 -7.5t24.5 -19.5zM241 669l-86 83l-123 -80l209 -140l208 140l-123 80z" />
    <glyph glyph-name="Sacute" unicode="&#x15a;" horiz-adv-x="648" 
d="M165 258l-133 -95q22 -57 66.5 -100t104 -66t124.5 -23q86 0 149.5 25t99 74.5t35.5 124.5q0 45 -13 80t-37 61t-56.5 45.5t-71.5 33.5q-42 15 -78.5 27.5t-59.5 27.5t-23 36q0 15 9 25t24.5 16t37.5 6q23 0 43.5 -8t37.5 -24.5t32 -41.5l145 81q-14 36 -46 72t-86 59.5
t-135 23.5q-77 0 -136 -25t-91.5 -71t-32.5 -107q0 -53 20.5 -91t51 -64t64 -42t58.5 -27q40 -15 71 -28t49 -27.5t18 -39.5q0 -19 -8.5 -31t-25.5 -18t-41 -6q-26 0 -48.5 7t-42 21.5t-38 37t-37.5 51.5zM514 928l-128 56l-150 -160l98 -46z" />
    <glyph glyph-name="sacute" unicode="&#x15b;" horiz-adv-x="472" 
d="M81 179l-64 -118q35 -25 74 -44t83.5 -29t95.5 -10q86 0 133 36t47 116q0 42 -18 68t-47 42.5t-62 28.5q-30 12 -57.5 20t-45 17.5t-17.5 21.5t9.5 17t31.5 5q19 0 44.5 -7t52 -19.5t46.5 -30.5l51 115q-30 18 -62 31.5t-68 22t-77 8.5q-53 0 -97 -15t-70 -45.5
t-26 -76.5q0 -41 15.5 -66.5t41 -43t55.5 -31.5q27 -13 57 -21.5t50.5 -17t20.5 -24.5q0 -13 -10 -17.5t-26 -4.5q-12 0 -34 5t-53.5 20.5t-73.5 46.5zM411 681l-127 56l-150 -160l97 -46z" />
    <glyph glyph-name="Scircumflex" unicode="&#x15c;" horiz-adv-x="648" 
d="M165 258l-133 -95q22 -57 66.5 -100t104 -66t124.5 -23q86 0 149.5 25t99 74.5t35.5 124.5q0 45 -13 80t-37 61t-56.5 45.5t-71.5 33.5q-42 15 -78.5 27.5t-59.5 27.5t-23 36q0 15 9 25t24.5 16t37.5 6q23 0 43.5 -8t37.5 -24.5t32 -41.5l145 81q-14 36 -46 72t-86 59.5
t-135 23.5q-77 0 -136 -25t-91.5 -71t-32.5 -107q0 -53 20.5 -91t51 -64t64 -42t58.5 -27q40 -15 71 -28t49 -27.5t18 -39.5q0 -19 -8.5 -31t-25.5 -18t-41 -6q-26 0 -48.5 7t-42 21.5t-38 37t-37.5 51.5zM334 861l85 -83l123 80l-208 140l-209 -140l123 -80z" />
    <glyph glyph-name="scircumflex" unicode="&#x15d;" horiz-adv-x="472" 
d="M81 179l-64 -118q35 -25 74 -44t83.5 -29t95.5 -10q86 0 133 36t47 116q0 42 -18 68t-47 42.5t-62 28.5q-30 12 -57.5 20t-45 17.5t-17.5 21.5t9.5 17t31.5 5q19 0 44.5 -7t52 -19.5t46.5 -30.5l51 115q-30 18 -62 31.5t-68 22t-77 8.5q-53 0 -97 -15t-70 -45.5
t-26 -76.5q0 -41 15.5 -66.5t41 -43t55.5 -31.5q27 -13 57 -21.5t50.5 -17t20.5 -24.5q0 -13 -10 -17.5t-26 -4.5q-12 0 -34 5t-53.5 20.5t-73.5 46.5zM247 614l86 -83l123 80l-209 140l-208 -140l123 -80z" />
    <glyph glyph-name="Scedilla" unicode="&#x15e;" horiz-adv-x="648" 
d="M165 258l-133 -95q22 -57 66.5 -100t104 -66t124.5 -23q85 0 149 25t99.5 74.5t35.5 124.5q0 45 -13 80t-37 61t-56.5 45.5t-71.5 33.5q-42 15 -78.5 27.5t-59.5 27.5t-23 36q0 15 8.5 25t24 16t36.5 6q23 0 44 -8t38.5 -24.5t32.5 -41.5l145 81q-14 37 -46.5 72.5
t-86 59t-134.5 23.5q-78 0 -136.5 -25.5t-91 -71.5t-32.5 -107q0 -54 20.5 -91.5t51 -63t64 -41.5t58.5 -27q40 -15 71 -28t49 -27.5t18 -39.5q0 -19 -8.5 -31t-25.5 -18t-41 -6q-26 0 -48.5 7t-42 21.5t-38 37t-37.5 51.5zM289 61l-89 -202q29 11 56 13t34 2q23 0 43 -5
t20 -26q0 -18 -14.5 -25.5t-40.5 -7.5q-14 0 -39.5 5.5t-45.5 19.5l-50 -77q40 -23 77.5 -31.5t83.5 -8.5q32 0 64 13t53 38.5t21 62.5q0 35 -15.5 58.5t-38 35t-43.5 11.5q-13 0 -24 -1t-21 -4l93 125z" />
    <glyph glyph-name="scedilla" unicode="&#x15f;" horiz-adv-x="472" 
d="M80 179l-63 -118q37 -25 76.5 -43.5t83.5 -29t94 -10.5q85 0 132 36t47 116q0 43 -18 69t-47 42.5t-62 28.5q-30 12 -56 19.5t-41.5 16.5t-15.5 25q0 11 10 18t32 7q28 0 66 -17.5t69 -45.5l51 115q-46 26 -96 44t-111 18q-53 0 -93 -15.5t-63 -45t-23 -72.5
q0 -46 19 -74t48.5 -44t62.5 -28q26 -8 47.5 -16t35 -18t13.5 -26q0 -14 -9.5 -21.5t-25.5 -7.5q-10 0 -32 5t-54.5 21.5t-76.5 50.5zM225 66l-88 -203q29 11 55.5 13.5t33.5 2.5q23 0 43.5 -5.5t20.5 -26.5q0 -18 -15 -25.5t-41 -7.5q-13 0 -39 5.5t-46 19.5l-49 -77
q39 -22 76.5 -30.5t83.5 -8.5q33 0 64.5 12.5t52.5 38t21 62.5q0 36 -15.5 59t-38 34.5t-43.5 11.5q-12 0 -23 -1t-21 -4l93 125z" />
    <glyph glyph-name="Scaron" unicode="&#x160;" horiz-adv-x="648" 
d="M165 258l-133 -95q22 -57 66.5 -100t104 -66t124.5 -23q86 0 149.5 25t99 74.5t35.5 124.5q0 45 -13 80t-37 61t-56.5 45.5t-71.5 33.5q-42 15 -78.5 27.5t-59.5 27.5t-23 36q0 15 9 25t24.5 16t37.5 6q23 0 43.5 -8t37.5 -24.5t32 -41.5l145 81q-14 36 -46 72t-86 59.5
t-135 23.5q-77 0 -136 -25t-91.5 -71t-32.5 -107q0 -53 20.5 -91t51 -64t64 -42t58.5 -27q40 -15 71 -28t49 -27.5t18 -39.5q0 -19 -8.5 -31t-25.5 -18t-41 -6q-26 0 -48.5 7t-42 21.5t-38 37t-37.5 51.5zM334 916l-86 82l-123 -80l209 -140l208 140l-123 80z" />
    <glyph glyph-name="scaron" unicode="&#x161;" horiz-adv-x="472" 
d="M81 179l-64 -118q35 -25 74 -44t83.5 -29t95.5 -10q86 0 133 36t47 116q0 42 -18 68t-47 42.5t-62 28.5q-30 12 -57.5 20t-45 17.5t-17.5 21.5t9.5 17t31.5 5q19 0 44.5 -7t52 -19.5t46.5 -30.5l51 115q-30 18 -62 31.5t-68 22t-77 8.5q-53 0 -97 -15t-70 -45.5
t-26 -76.5q0 -41 15.5 -66.5t41 -43t55.5 -31.5q27 -13 57 -21.5t50.5 -17t20.5 -24.5q0 -13 -10 -17.5t-26 -4.5q-12 0 -34 5t-53.5 20.5t-73.5 46.5zM231 652l-86 83l-122 -80l208 -140l209 140l-123 80z" />
    <glyph glyph-name="uni0162" unicode="&#x162;" 
d="M233 12l-88 -203q29 11 55.5 13t33.5 2q23 0 43.5 -5t20.5 -26q0 -18 -15 -25.5t-41 -7.5q-13 0 -39 5.5t-46 19.5l-49 -77q39 -22 76.5 -30.5t83.5 -8.5q33 0 64.5 12.5t52.5 38t21 62.5q0 35 -15.5 58.5t-38 35t-43.5 11.5q-12 0 -23 -1t-21 -4l93 125zM2 527h196v-527
h194v527h196v173h-586v-173z" />
    <glyph glyph-name="uni0163" unicode="&#x163;" horiz-adv-x="341" 
d="M109 12l-88 -203q29 11 55.5 13t33.5 2q23 0 43.5 -5t20.5 -26q0 -18 -15 -25.5t-41 -7.5q-13 0 -39 5.5t-46 19.5l-49 -77q39 -22 76.5 -30.5t83.5 -8.5q33 0 64.5 12.5t52.5 38t21 62.5q0 35 -15.5 58.5t-38 35t-43.5 11.5q-12 0 -23 -1t-21 -4l93 125zM5 460v-140h331
v140h-331zM88 620v-620h165v620h-165z" />
    <glyph glyph-name="Tcaron" unicode="&#x164;" 
d="M2 527h196v-527h194v527h196v173h-586v-173zM295 916l-86 82l-122 -80l208 -140l209 140l-123 80z" />
    <glyph glyph-name="tcaron" unicode="&#x165;" horiz-adv-x="524" 
d="M5 460v-140h331v140h-331zM88 620v-620h165v620h-165zM406 779l-88 -259l130 -24l130 250z" />
    <glyph glyph-name="Tbar" unicode="&#x166;" 
d="M100 279h392v148h-392v-148zM2 527h196v-527h194v527h196v173h-586v-173z" />
    <glyph glyph-name="tbar" unicode="&#x167;" horiz-adv-x="240" 
d="M20 169h216v147h-216v-147zM5 460v-140h331v140h-331zM88 620v-620h165v620h-165z" />
    <glyph glyph-name="Utilde" unicode="&#x168;" horiz-adv-x="723" 
d="M67 700v-470q0 -71 23 -121t63.5 -81.5t94 -46.5t113.5 -15q61 0 114 15t94 46.5t64 81.5t23 121v470h-194v-454q0 -48 -25 -77.5t-76 -29.5q-50 0 -75 29.5t-25 77.5v454h-194zM156 852l77 -69q0 8 3.5 20t14 21.5t28.5 9.5q26 0 48.5 -14t46 -27.5t50.5 -13.5
q34 0 63 14.5t50.5 35.5t29.5 39l-79 83q-15 -24 -31 -39t-37 -15t-36.5 8t-29.5 18.5t-31.5 18.5t-42.5 8q-34 0 -60.5 -14.5t-42.5 -36.5t-21 -47z" />
    <glyph glyph-name="utilde" unicode="&#x169;" 
d="M362 0h173v460h-173v-460zM236 180v280h-181v-298q0 -83 38 -128t128 -45q60 0 96.5 27t53.5 72.5t17 99.5l-26 -8q0 -25 -8.5 -41.5t-23.5 -25t-37 -8.5q-33 0 -45 19.5t-12 55.5zM90 605l77 -69q0 8 3.5 20t14 21.5t28.5 9.5q26 0 48.5 -14t46 -27.5t50.5 -13.5
q33 0 62.5 14.5t51 35.5t29.5 39l-79 83q-15 -24 -31 -39t-37 -15t-36.5 8t-29.5 18.5t-31.5 18.5t-42.5 8q-34 0 -60.5 -14.5t-42.5 -36.5t-21 -47z" />
    <glyph glyph-name="Umacron" unicode="&#x16a;" horiz-adv-x="723" 
d="M67 700v-470q0 -71 23 -121t63.5 -81.5t94 -46.5t113.5 -15q61 0 114 15t94 46.5t64 81.5t23 121v470h-194v-454q0 -48 -25 -77.5t-76 -29.5q-50 0 -75 29.5t-25 77.5v454h-194zM173 778h378v148h-378v-148z" />
    <glyph glyph-name="umacron" unicode="&#x16b;" 
d="M362 0h173v460h-173v-460zM236 180v280h-181v-298q0 -83 38 -128t128 -45q60 0 96.5 27t53.5 72.5t17 99.5l-26 -8q0 -25 -8.5 -41.5t-23.5 -25t-37 -8.5q-33 0 -45 19.5t-12 55.5zM106 531h378v147h-378v-147z" />
    <glyph glyph-name="Ubreve" unicode="&#x16c;" horiz-adv-x="723" 
d="M67 700v-470q0 -71 23 -121t63.5 -81.5t94 -46.5t113.5 -15q61 0 114 15t94 46.5t64 81.5t23 121v470h-194v-454q0 -48 -25 -77.5t-76 -29.5q-50 0 -75 29.5t-25 77.5v454h-194zM195 926q0 -42 19.5 -75.5t57 -53t89.5 -19.5q53 0 90 19.5t56.5 53t19.5 75.5h-107
q0 -19 -8.5 -31t-22 -18t-28.5 -6q-14 0 -27.5 6t-22 18t-8.5 31h-108z" />
    <glyph glyph-name="ubreve" unicode="&#x16d;" 
d="M362 0h173v460h-173v-460zM236 180v280h-181v-298q0 -83 38 -128t128 -45q60 0 96.5 27t53.5 72.5t17 99.5l-26 -8q0 -25 -8.5 -41.5t-23.5 -25t-37 -8.5q-33 0 -45 19.5t-12 55.5zM129 679q0 -42 19.5 -76t57 -53t89.5 -19q53 0 90 19t56.5 53t19.5 76h-107
q0 -19 -8.5 -31t-22 -18t-28.5 -6t-28 6t-21.5 18t-8.5 31h-108z" />
    <glyph glyph-name="Uring" unicode="&#x16e;" horiz-adv-x="723" 
d="M67 700v-470q0 -71 23 -121t63.5 -81.5t94 -46.5t113.5 -15q61 0 114 15t94 46.5t64 81.5t23 121v470h-194v-454q0 -48 -25 -77.5t-76 -29.5q-50 0 -75 29.5t-25 77.5v454h-194zM230 898q0 -53 37.5 -86.5t93.5 -33.5t94 33.5t38 87.5q0 53 -38 86t-94 33t-93.5 -33
t-37.5 -87zM316 898q0 22 13 34.5t32 12.5t32 -12.5t13 -34.5t-13 -33.5t-32 -11.5t-32 12t-13 33z" />
    <glyph glyph-name="uring" unicode="&#x16f;" 
d="M362 0h173v460h-173v-460zM236 180v280h-181v-298q0 -83 38 -128t128 -45q60 0 96.5 27t53.5 72.5t17 99.5l-26 -8q0 -25 -8.5 -41.5t-23.5 -25t-37 -8.5q-33 0 -45 19.5t-12 55.5zM163 651q0 -53 38 -86.5t93 -33.5q56 0 94.5 33.5t38.5 86.5q0 54 -38.5 87t-94.5 33
q-55 0 -93 -33t-38 -87zM250 651q0 22 12.5 34.5t31.5 12.5t32.5 -12.5t13.5 -34.5t-13.5 -34t-32.5 -12t-31.5 12t-12.5 34z" />
    <glyph glyph-name="Uhungarumlaut" unicode="&#x170;" horiz-adv-x="723" 
d="M264 778l148 181l-135 33l-117 -186zM458 778l148 181l-136 33l-117 -186zM67 700v-470q0 -71 23 -121t63.5 -81.5t94 -46.5t113.5 -15q61 0 114 15t94 46.5t64 81.5t23 121v470h-194v-454q0 -48 -25 -77.5t-76 -29.5q-50 0 -75 29.5t-25 77.5v454h-194z" />
    <glyph glyph-name="uhungarumlaut" unicode="&#x171;" 
d="M198 530l148 181l-135 33l-117 -186zM392 530l148 181l-136 33l-117 -186zM236 180v280h-181v-298q0 -82 38 -127.5t128 -45.5q52 0 86.5 21.5t54.5 57.5v-68h173v460h-173v-280q0 -25 -8.5 -42t-23.5 -25t-37 -8q-33 0 -45 19.5t-12 55.5z" />
    <glyph glyph-name="Uogonek" unicode="&#x172;" horiz-adv-x="723" 
d="M407 -125q-10 -10 -23 -15t-27 -5q-16 0 -24 9t-8 25q0 15 8.5 30.5t25.5 31t43 30.5l-41 25q-35 -18 -67 -39t-52.5 -46.5t-20.5 -59.5q0 -33 16.5 -55.5t42.5 -33.5t56 -11q44 0 68.5 12.5t35.5 27.5zM67 700v-470q0 -71 23 -121t63.5 -81.5t94 -46.5t113.5 -15
q61 0 114 15t94 46.5t64 81.5t23 121v470h-194v-454q0 -48 -25 -77.5t-76 -29.5q-50 0 -75 29.5t-25 77.5v454h-194z" />
    <glyph glyph-name="uogonek" unicode="&#x173;" 
d="M527 -106q-10 -10 -23 -15t-27 -5q-16 0 -24 9t-8 25q0 15 8.5 30.5t25.5 31t43 30.5l-41 25q-35 -18 -67 -39t-52.5 -46.5t-20.5 -59.5q0 -33 16.5 -55.5t42.5 -33.5t56 -11q44 0 68.5 12.5t35.5 27.5zM236 180v280h-181v-298q0 -82 38 -127.5t128 -45.5q52 0 86.5 21.5
t54.5 57.5v-68h173v460h-173v-280q0 -25 -8.5 -42t-23.5 -25t-37 -8q-33 0 -45 19.5t-12 55.5z" />
    <glyph glyph-name="Wcircumflex" unicode="&#x174;" horiz-adv-x="1087" 
d="M738 317l-195 418l-194 -418l-115 383h-232l311 -743l230 386l231 -386l311 743h-232zM543 878l86 -83l123 80l-209 140l-208 -140l123 -80z" />
    <glyph glyph-name="wcircumflex" unicode="&#x175;" horiz-adv-x="785" 
d="M-11 460l248 -487l155 255l156 -255l248 487h-179l-90 -217l-136 252l-133 -252l-90 217h-179zM391 638l86 -83l123 80l-209 140l-208 -140l123 -80z" />
    <glyph glyph-name="Ycircumflex" unicode="&#x176;" horiz-adv-x="689" 
d="M468 700l-123 -245l-124 245h-224l249 -422v-278h198v280l248 420h-224zM345 861l86 -83l122 80l-208 140l-209 -140l123 -80z" />
    <glyph glyph-name="ycircumflex" unicode="&#x177;" horiz-adv-x="545" 
d="M557 460h-175l-148 -371l91 -1l-149 372h-188l206 -431l-108 -249h171zM272 614l86 -83l123 80l-209 140l-208 -140l123 -80z" />
    <glyph glyph-name="Ydieresis" unicode="&#x178;" horiz-adv-x="689" 
d="M95 881q0 -39 28.5 -64t68.5 -25q41 0 69.5 25t28.5 64q0 40 -28.5 65t-69.5 25q-40 0 -68.5 -25t-28.5 -65zM399 881q0 -39 28.5 -64t69.5 -25t69.5 25t28.5 64q0 40 -28.5 65t-69.5 25t-69.5 -25t-28.5 -65zM468 700l-123 -245l-124 245h-224l249 -422v-278h198v280
l248 420h-224z" />
    <glyph glyph-name="Zacute" unicode="&#x179;" horiz-adv-x="642" 
d="M63 527h258l-314 -527h583v165h-280l320 535h-567v-173zM522 928l-127 56l-150 -160l97 -46z" />
    <glyph glyph-name="zacute" unicode="&#x17a;" horiz-adv-x="541" 
d="M244 304l-229 -304h475v156h-177l213 304h-465v-156h183zM470 685l-128 56l-150 -160l98 -46z" />
    <glyph glyph-name="Zdotaccent" unicode="&#x17b;" horiz-adv-x="642" 
d="M63 527h258l-314 -527h583v165h-280l320 535h-567v-173zM248 868q0 -40 29 -65t69 -25q41 0 69.5 25t28.5 65t-28.5 64.5t-69.5 24.5q-40 0 -69 -24.5t-29 -64.5z" />
    <glyph glyph-name="zdotaccent" unicode="&#x17c;" horiz-adv-x="541" 
d="M244 304l-229 -304h475v156h-177l213 304h-465v-156h183zM196 626q0 -39 28.5 -64t68.5 -25q41 0 69.5 25t28.5 64q0 40 -28.5 65t-69.5 25q-40 0 -68.5 -25t-28.5 -65z" />
    <glyph glyph-name="Zcaron" unicode="&#x17d;" horiz-adv-x="642" 
d="M63 527h258l-314 -527h583v165h-280l320 535h-567v-173zM346 916l-86 82l-122 -80l208 -140l209 140l-123 80z" />
    <glyph glyph-name="zcaron" unicode="&#x17e;" horiz-adv-x="533" 
d="M293 668l-85 82l-123 -80l208 -140l209 140l-123 80zM245 304l-230 -304h475v156h-179l215 304h-465v-156h184z" />
    <glyph glyph-name="florin" unicode="&#x192;" horiz-adv-x="600" 
d="M189 -200q51 0 91 20.5t63.5 58.5t25.5 88l18 353h93l8 140h-94l9 123q2 29 14 46t31 17q11 0 22 -5.5t25 -19.5l62 120q-40 31 -72 43.5t-67 12.5q-75 1 -124.5 -44.5t-54.5 -122.5l-9 -170h-67l-10 -140h70l-17 -306q-2 -28 -15 -45.5t-33 -17.5q-9 0 -20 5.5t-25 19.5
l-63 -120q40 -30 72.5 -43t66.5 -13z" />
    <glyph glyph-name="uni0212" unicode="&#x212;" horiz-adv-x="673" 
d="M261 309l184 -309h226l-210 309h-200zM72 700v-700h194v700h-194zM196 536h135q31 0 52 -9t32.5 -26.5t11.5 -42.5t-11.5 -43t-32.5 -27t-52 -9h-135v-147h151q96 0 158.5 29.5t93 83t30.5 121.5q0 69 -30.5 121.5t-93 82.5t-158.5 30h-151v-164zM176 778q0 43 19.5 76.5
t57 52.5t89.5 19q53 0 90 -19t56.5 -52.5t19.5 -76.5h-107q0 20 -8.5 31.5t-22 17.5t-28.5 6t-28.5 -6t-22 -17.5t-8.5 -31.5h-107z" />
    <glyph glyph-name="uni0213" unicode="&#x213;" horiz-adv-x="432" 
d="M224 460h-169v-460h169v460zM355 283l72 149q-11 17 -34 28.5t-48 11.5q-40 0 -76.5 -25.5t-58.5 -68.5t-22 -98l36 -69q0 33 9.5 55t26.5 33t37 11t33.5 -7.5t24.5 -19.5zM75 532q0 43 19.5 76t57 52.5t89.5 19.5q53 0 90 -19.5t56.5 -52.5t19.5 -76h-107q0 19 -9 31
t-22 17.5t-28 5.5t-28.5 -5.5t-22 -17.5t-8.5 -31h-107z" />
    <glyph glyph-name="uni0218" unicode="&#x218;" horiz-adv-x="648" 
d="M165 258l-133 -95q22 -57 66.5 -100t104 -66t124.5 -23q86 0 149.5 25t99 74.5t35.5 124.5q0 45 -13 80t-37 61t-56.5 45.5t-71.5 33.5q-42 15 -78.5 27.5t-59.5 27.5t-23 36q0 15 9 25t24.5 16t37.5 6q23 0 43.5 -8t37.5 -24.5t32 -41.5l145 81q-14 36 -46 72t-86 59.5
t-135 23.5q-77 0 -136 -25t-91.5 -71t-32.5 -107q0 -53 20.5 -91t51 -64t64 -42t58.5 -27q40 -15 71 -28t49 -27.5t18 -39.5q0 -19 -8.5 -31t-25.5 -18t-41 -6q-26 0 -48.5 7t-42 21.5t-38 37t-37.5 51.5zM252 -70l-88 -259l131 -24l131 250z" />
    <glyph glyph-name="uni0219" unicode="&#x219;" horiz-adv-x="472" 
d="M81 179l-64 -118q35 -25 74 -44t83.5 -29t95.5 -10q86 0 133 36t47 116q0 42 -18 68t-47 42.5t-62 28.5q-30 12 -57.5 20t-45 17.5t-17.5 21.5t9.5 17t31.5 5q19 0 44.5 -7t52 -19.5t46.5 -30.5l51 115q-30 18 -62 31.5t-68 22t-77 8.5q-53 0 -97 -15t-70 -45.5
t-26 -76.5q0 -41 15.5 -66.5t41 -43t55.5 -31.5q27 -13 57 -21.5t50.5 -17t20.5 -24.5q0 -13 -10 -17.5t-26 -4.5q-12 0 -34 5t-53.5 20.5t-73.5 46.5zM195 -66l-88 -259l131 -24l129 250z" />
    <glyph glyph-name="uni021A" unicode="&#x21a;" 
d="M2 527h196v-527h194v527h196v173h-586v-173zM253 -60l-88 -259l131 -24l130 250z" />
    <glyph glyph-name="uni021B" unicode="&#x21b;" horiz-adv-x="341" 
d="M5 460v-140h331v140h-331zM88 620v-620h165v620h-165zM128 -60l-88 -259l131 -24l130 250z" />
    <glyph glyph-name="uni0237" unicode="&#x237;" horiz-adv-x="278" 
d="M-38 -66l-66 -124q12 -10 30 -23t45 -22t64 -9q62 0 103.5 21t62 59t20.5 88v536h-165v-490q0 -21 -5.5 -34.5t-16.5 -20.5t-26 -7q-14 0 -25 6.5t-21 19.5z" />
    <glyph glyph-name="circumflex" unicode="&#x2c6;" horiz-adv-x="480" 
d="M240 625l86 -83l122 80l-208 140l-208 -140l122 -80z" />
    <glyph glyph-name="caron" unicode="&#x2c7;" horiz-adv-x="480" 
d="M240 682l-86 83l-122 -80l208 -140l208 140l-122 80z" />
    <glyph glyph-name="breve" unicode="&#x2d8;" horiz-adv-x="546" 
d="M107 850q0 -42 19.5 -75.5t57 -53t89.5 -19.5q53 0 90 19.5t56.5 53t19.5 75.5h-107q0 -19 -8.5 -31t-22 -18t-28.5 -6t-28.5 6t-22 18t-8.5 31h-107z" />
    <glyph glyph-name="dotaccent" unicode="&#x2d9;" horiz-adv-x="300" 
d="M52 820q0 -40 28.5 -65t69.5 -25t69.5 25t28.5 65t-28.5 65t-69.5 25t-69.5 -25t-28.5 -65z" />
    <glyph glyph-name="ring" unicode="&#x2da;" horiz-adv-x="343" 
d="M39 765q0 -53 38 -86.5t93 -33.5q56 0 94.5 33.5t38.5 86.5q0 54 -38.5 87t-94.5 33q-55 0 -93 -33t-38 -87zM126 765q0 22 12.5 34t31.5 12t32.5 -12t13.5 -34t-13.5 -34t-32.5 -12t-31.5 12t-12.5 34z" />
    <glyph glyph-name="ogonek" unicode="&#x2db;" horiz-adv-x="260" 
d="M194 -106q-10 -10 -23 -15t-27 -5q-16 0 -24 9t-8 25q0 15 8.5 30.5t25.5 31t43 30.5l-41 25q-35 -18 -67 -39t-52.5 -46.5t-20.5 -59.5q0 -33 16.5 -55.5t42.5 -33.5t56 -11q44 0 68.5 12.5t35.5 27.5z" />
    <glyph glyph-name="tilde" unicode="&#x2dc;" horiz-adv-x="530" 
d="M68 641l77 -69q0 8 3.5 20t14 21.5t28.5 9.5q25 0 47.5 -14t46.5 -27.5t51 -13.5q33 0 62.5 14.5t50.5 35.5t29 39l-78 83q-15 -24 -31.5 -39t-36.5 -15q-22 0 -37 8t-29 18.5t-31.5 18.5t-42.5 8q-34 0 -60.5 -14.5t-42.5 -36.5t-21 -47z" />
    <glyph glyph-name="hungarumlaut" unicode="&#x2dd;" horiz-adv-x="0" 
d="M104 526l148 181l-135 33l-117 -186zM298 526l148 181l-136 33l-117 -186z" />
    <glyph glyph-name="gravecomb" unicode="&#x300;" horiz-adv-x="0" 
d="M180 533l97 46l-150 160l-127 -56z" />
    <glyph glyph-name="acutecomb" unicode="&#x301;" horiz-adv-x="0" 
d="M112 537l180 150l-127 56l-150 -160z" />
    <glyph glyph-name="uni0302" unicode="&#x302;" horiz-adv-x="0" 
d="M74 550l121 99h-37l122 -99l74 94l-176 122l-178 -122z" />
    <glyph glyph-name="tildecomb" unicode="&#x303;" horiz-adv-x="0" 
d="M77 572q0 13 7 24.5t19 19t28 7.5q23 0 41 -14t38.5 -27.5t49.5 -13.5t60.5 14.5t57 35.5t33.5 39l-79 83q-16 -24 -34 -39t-42 -15q-19 0 -31.5 8t-23.5 18.5t-27 18.5t-42 8q-31 0 -59.5 -14.5t-47.5 -36.5t-25 -47z" />
    <glyph glyph-name="uni0304" unicode="&#x304;" horiz-adv-x="0" 
d="M0 556h378v119h-378v-119z" />
    <glyph glyph-name="uni0306" unicode="&#x306;" horiz-adv-x="0" 
d="M166 548q50 0 87.5 18.5t58 51.5t20.5 78h-129q0 -16 -4.5 -28t-13 -19.5t-19.5 -7.5t-19.5 7.5t-13 19.5t-4.5 28h-129q0 -45 20.5 -78t58 -51.5t87.5 -18.5z" />
    <glyph glyph-name="uni0307" unicode="&#x307;" horiz-adv-x="0" 
d="M98 521q42 0 70 25.5t28 63.5q0 39 -28 64.5t-70 25.5t-70 -25.5t-28 -64.5q0 -38 28 -63.5t70 -25.5z" />
    <glyph glyph-name="uni0308" unicode="&#x308;" horiz-adv-x="0" 
d="M98 534q44 0 71 24.5t27 65.5q0 40 -27 64.5t-71 24.5q-45 0 -71.5 -24.5t-26.5 -64.5q0 -41 26.5 -65.5t71.5 -24.5zM354 534q45 0 71.5 24.5t26.5 65.5q0 40 -26.5 64.5t-71.5 24.5q-44 0 -71 -24.5t-27 -64.5q0 -41 27 -65.5t71 -24.5z" />
    <glyph glyph-name="uni030A" unicode="&#x30a;" horiz-adv-x="0" 
d="M133 520q39 0 69.5 16t48 43.5t17.5 62.5t-17.5 63t-48 43.5t-69.5 15.5q-58 0 -95.5 -34.5t-37.5 -87.5t37.5 -87.5t95.5 -34.5zM133 595q-20 0 -33 13t-13 34t13 34.5t33 13.5q21 0 33.5 -13.5t12.5 -34.5q0 -20 -12.5 -33.5t-33.5 -13.5z" />
    <glyph glyph-name="uni030B" unicode="&#x30b;" horiz-adv-x="0" 
d="M104 526l148 181l-135 33l-117 -186zM298 526l148 181l-136 33l-117 -186z" />
    <glyph glyph-name="uni030C" unicode="&#x30c;" horiz-adv-x="0" 
d="M178 550l176 123l-74 93l-122 -98h37l-121 98l-74 -93z" />
    <glyph glyph-name="uni0312" unicode="&#x312;" horiz-adv-x="0" 
d="M173 497l88 259l-131 24l-130 -250z" />
    <glyph glyph-name="uni0326" unicode="&#x326;" horiz-adv-x="0" 
d="M94 -202l123 137l-124 44l-93 -149z" />
    <glyph glyph-name="uni0327" unicode="&#x327;" horiz-adv-x="0" 
d="M137 -214q51 0 85 30.5t34 76.5q0 34 -21 58t-53 24q-28 0 -54 -4.5t-47 -6.5l62 -17l58 123l-93 5l-65 -153q18 2 35.5 1.5t29.5 -0.5q24 0 34.5 -6t10.5 -20q0 -16 -10 -25t-28 -9q-21 0 -44 5t-41 13l-30 -67q26 -13 64 -20.5t73 -7.5z" />
    <glyph glyph-name="uni0328" unicode="&#x328;" horiz-adv-x="0" 
d="M115 -220q44 0 68.5 12.5t35.5 27.5l-33 74q-10 -10 -23 -15t-27 -5q-16 0 -24 9t-8 25q0 15 8.5 30.5t25.5 31t43 30.5l-41 25q-35 -18 -67 -39t-52.5 -46.5t-20.5 -59.5q0 -33 16.5 -55.5t42.5 -33.5t56 -11z" />
    <glyph glyph-name="uni0394" unicode="&#x394;" horiz-adv-x="600" 
d="M18 0l282 800l281 -800h-563zM201 127h197l-98 334z" />
    <glyph glyph-name="uni03A9" unicode="&#x3a9;" horiz-adv-x="600" 
d="M66 0v149l88 -16q-30 30 -48.5 59t-27 59.5t-8.5 65.5q0 69 30 123.5t82 86.5t118 32t118 -32t82 -86.5t30 -123.5q0 -35 -8.5 -65.5t-27 -59.5t-48.5 -59l88 16v-149h-213v111q22 19 38.5 43.5t25 51.5t8.5 54q0 34 -12 60.5t-33 41.5t-48 15t-48 -15t-33.5 -41.5
t-12.5 -60.5q0 -27 9.5 -54t25.5 -51.5t38 -43.5v-111h-213z" />
    <glyph glyph-name="uni03BC" unicode="&#x3bc;" horiz-adv-x="583" 
d="M236 460h-181v-780h165v338q19 -13 33 -16.5t29 -3.5q27 0 47 15t33 37v-50h173v460h-173v-248q0 -25 -8.5 -41.5t-23.5 -25t-37 -8.5q-33 0 -45 19.5t-12 55.5v248z" />
    <glyph glyph-name="pi" unicode="&#x3c0;" horiz-adv-x="621" 
d="M90 430v-430h161v430h-161zM30 460v-140h551v140h-551zM340 430v-309q0 -62 24 -89.5t71.5 -34t118.5 -6.5v128q-15 0 -27 4t-19 18.5t-7 47.5v241h-161z" />
    <glyph glyph-name="uni0400" unicode="&#x400;" horiz-adv-x="619" 
d="M204 0h353v157h-353v-157zM204 543h353v157h-353v-157zM204 288h333v152h-333v-152zM72 700v-700h186v700h-186zM135 928l180 -150l97 46l-150 160z" />
    <glyph glyph-name="uni0401" unicode="&#x401;" horiz-adv-x="619" 
d="M204 0h353v157h-353v-157zM204 543h353v157h-353v-157zM204 288h333v152h-333v-152zM72 700v-700h186v700h-186zM345 868q0 -40 28.5 -65t69.5 -25t69.5 25t28.5 65t-28.5 64.5t-69.5 24.5t-69.5 -24.5t-28.5 -64.5zM89 868q0 -40 28.5 -65t68.5 -25q41 0 69.5 25
t28.5 65t-28.5 64.5t-69.5 24.5q-40 0 -68.5 -24.5t-28.5 -64.5z" />
    <glyph glyph-name="uni0403" unicode="&#x403;" horiz-adv-x="528" 
d="M80 700v-700h194v527h244v173h-438zM479 928l-127 56l-150 -160l97 -46z" />
    <glyph glyph-name="uni040C" unicode="&#x40c;" horiz-adv-x="739" 
d="M72 700v-700h202v700h-202zM501 700l-283 -334l289 -366h235l-293 372l278 328h-226zM580 928l-127 56l-150 -160l97 -46z" />
    <glyph glyph-name="uni040D" unicode="&#x40d;" horiz-adv-x="799" 
d="M722 500l5 235l-650 -535l-5 -235zM258 700h-186v-735l186 183v552zM727 735l-186 -191v-544h186v735zM247 911l180 -150l97 46l-150 160z" />
    <glyph glyph-name="uni040E" unicode="&#x40e;" horiz-adv-x="617" 
d="M630 700h-192l-178 -401h78l-144 401h-206l220 -485l-95 -215h188zM143 926q0 -42 19.5 -75.5t57 -53t89.5 -19.5q53 0 90 19.5t56.5 53t19.5 75.5h-107q0 -19 -8.5 -31t-22 -18t-28.5 -6t-28 6t-22 18t-9 31h-107z" />
    <glyph glyph-name="uni0410" unicode="&#x410;" horiz-adv-x="757" 
d="M195 113h370l-5 143h-359zM378 413l93 -210l-11 -50l80 -153h220l-382 747l-381 -747h220l81 160l-12 43z" />
    <glyph glyph-name="uni0411" unicode="&#x411;" horiz-adv-x="709" 
d="M127 288h256q29 0 48.5 -7t29.5 -21.5t10 -37.5t-10 -37.5t-29.5 -21t-48.5 -6.5h-256v-157h304q68 0 121.5 28.5t85 79t31.5 114.5q0 65 -31.5 114t-85 76.5t-121.5 27.5h-304v-152zM80 700v-700h198v543h338v157h-536z" />
    <glyph glyph-name="uni0412" unicode="&#x412;" horiz-adv-x="695" 
d="M216 342h137q75 0 133.5 20.5t92.5 61t34 97.5q0 60 -34 99.5t-92.5 59.5t-133.5 20h-281v-700h299q88 0 151 19.5t97 62.5t34 113q0 54 -24.5 92.5t-65.5 63t-91 36t-101 11.5h-155v-106h131q22 0 40.5 -3t33 -11t22.5 -21t8 -33q0 -31 -14 -47.5t-37.5 -22.5t-52.5 -6
h-81v404h63q40 0 61 -15t21 -47q0 -21 -9.5 -36t-27.5 -23t-45 -8h-113v-81z" />
    <glyph glyph-name="uni0413" unicode="&#x413;" horiz-adv-x="528" 
d="M80 700v-700h194v527h244v173h-438z" />
    <glyph glyph-name="uni0414" unicode="&#x414;" horiz-adv-x="908" 
d="M451 397l131 -367h227l-358 705l-357 -705h227zM667 0v-110h196v275h-823v-275h196v110h431z" />
    <glyph glyph-name="uni0415" unicode="&#x415;" horiz-adv-x="619" 
d="M204 0h353v157h-353v-157zM204 543h353v157h-353v-157zM204 288h333v152h-333v-152zM72 700v-700h186v700h-186z" />
    <glyph glyph-name="uni0416" unicode="&#x416;" horiz-adv-x="1141" 
d="M238 700h-226l287 -328l-302 -372h226l300 370zM471 700v-700h202v700h-202zM895 700l-275 -330l290 -370h234l-302 372l287 328h-234z" />
    <glyph glyph-name="uni0417" unicode="&#x417;" horiz-adv-x="687" 
d="M311 337q67 0 127 10.5t106 32t72 56t26 82.5q0 55 -32 99.5t-95 70.5t-157 26q-93 0 -156.5 -30.5t-95.5 -82t-32 -115.5h178q0 23 12 40t36 26.5t58 9.5q30 0 51 -8.5t31.5 -23t10.5 -33.5q0 -23 -15.5 -40.5t-46.5 -27.5t-78 -10v-82zM365 -18q100 0 166 27t98.5 75
t32.5 109q0 72 -45 116.5t-124.5 65t-181.5 20.5v-94q59 0 94 -12t50.5 -32.5t15.5 -45.5q0 -42 -32.5 -59t-81.5 -17q-32 0 -60 10t-44.5 32t-17.5 56h-191q0 -48 18.5 -93t57.5 -81t100 -56.5t145 -20.5z" />
    <glyph glyph-name="uni0418" unicode="&#x418;" horiz-adv-x="799" 
d="M722 500l5 235l-650 -535l-5 -235zM258 700h-186v-735l186 183v552zM727 735l-186 -191v-544h186v735z" />
    <glyph glyph-name="uni0419" unicode="&#x419;" horiz-adv-x="799" 
d="M722 500l5 235l-650 -535l-5 -235zM258 700h-186v-735l186 183v552zM727 735l-186 -191v-544h186v735zM257 921q0 -42 19.5 -75.5t57 -53t89.5 -19.5q53 0 90 19.5t56.5 53t19.5 75.5h-107q0 -19 -8.5 -31t-22 -18t-28.5 -6t-28 6t-22 18t-9 31h-107z" />
    <glyph glyph-name="uni041A" unicode="&#x41a;" horiz-adv-x="739" 
d="M72 700v-700h202v700h-202zM501 700l-283 -334l289 -366h235l-293 372l278 328h-226z" />
    <glyph glyph-name="uni041B" unicode="&#x41b;" horiz-adv-x="803" 
d="M723 700h-604v-406q0 -30 -7.5 -54.5t-21.5 -41.5t-34.5 -26t-45.5 -9v-163q109 0 177 32.5t98.5 102t30.5 178.5v214h209v-527h198v700z" />
    <glyph glyph-name="uni041C" unicode="&#x41c;" horiz-adv-x="915" 
d="M277 322l180 -257l181 257l39 -322h206l-121 735l-305 -403l-304 403l-121 -735h206z" />
    <glyph glyph-name="uni041D" unicode="&#x41d;" horiz-adv-x="808" 
d="M119 279h544v173h-544v-173zM542 700v-700h194v700h-194zM72 700v-700h194v700h-194z" />
    <glyph glyph-name="uni041E" unicode="&#x41e;" horiz-adv-x="830" 
d="M237 350q0 57 22 100t62 67.5t94 24.5q57 0 96.5 -24.5t60.5 -67.5t21 -100q0 -56 -22 -99.5t-61.5 -68t-94.5 -24.5q-54 0 -94 24.5t-62 68t-22 99.5zM32 350q0 -82 28 -151t79.5 -119.5t121.5 -78t154 -27.5t154.5 27.5t121.5 78t79 119.5t28 151q0 83 -28.5 150.5
t-80.5 116t-121.5 75t-152.5 26.5q-81 0 -150.5 -26.5t-121.5 -75t-81.5 -116t-29.5 -150.5z" />
    <glyph glyph-name="uni041F" unicode="&#x41f;" horiz-adv-x="788" 
d="M510 527v-527h198v700h-628v-700h198v527h232z" />
    <glyph glyph-name="uni0420" unicode="&#x420;" horiz-adv-x="645" 
d="M72 700v-700h194v700h-194zM196 543h135q46 0 71 -20t25 -57q0 -38 -25 -58t-71 -20h-135v-156h135q96 0 158.5 28t93 81t30.5 125q0 73 -30.5 125t-93 80.5t-158.5 28.5h-135v-157z" />
    <glyph glyph-name="uni0421" unicode="&#x421;" horiz-adv-x="705" 
d="M245 350q0 59 26.5 100.5t70.5 63t97 21.5q50 0 87 -13t66 -33.5t51 -43.5v204q-41 31 -90.5 50t-126.5 19q-87 0 -160 -26t-125 -75t-80.5 -116.5t-28.5 -150.5t28.5 -150.5t80.5 -116.5t125 -75t160 -26q77 0 126.5 19.5t90.5 49.5v204q-22 -23 -51 -43.5t-66 -33.5
t-87 -13q-53 0 -97 21.5t-70.5 63t-26.5 100.5z" />
    <glyph glyph-name="uni0422" unicode="&#x422;" 
d="M2 527h196v-527h194v527h196v173h-586v-173z" />
    <glyph glyph-name="uni0423" unicode="&#x423;" horiz-adv-x="634" 
d="M646 700h-200l-178 -401h79l-145 401h-214l228 -485l-95 -215h196z" />
    <glyph glyph-name="uni0424" unicode="&#x424;" horiz-adv-x="977" 
d="M389 700v-700h198v700h-198zM739 350q0 -41 -21 -64t-59 -31.5t-91 -8.5h-160q-52 0 -90.5 8.5t-59 31.5t-20.5 64q0 42 20.5 64.5t59 31t90.5 8.5h160q53 0 91 -8.5t59 -31t21 -64.5zM937 350q0 85 -43.5 145t-118 92.5t-166.5 32.5h-241q-92 0 -166.5 -32.5t-118 -92.5
t-43.5 -145q0 -84 43.5 -144.5t118 -93t166.5 -32.5h241q92 0 166.5 32.5t118 93t43.5 144.5z" />
    <glyph glyph-name="uni0425" unicode="&#x425;" horiz-adv-x="724" 
d="M466 700l-100 -186l-98 186h-241l219 -343l-244 -357h241l121 215l117 -215h242l-239 357l224 343h-242z" />
    <glyph glyph-name="uni0426" unicode="&#x426;" horiz-adv-x="889" 
d="M270 173v527h-198v-700h597v-142h188v315h-117v527h-198v-527h-272z" />
    <glyph glyph-name="uni0427" unicode="&#x427;" horiz-adv-x="748" 
d="M314 203h217v172h-152zM466 700v-700h202v700h-202zM269 700h-197v-247q0 -67 28.5 -124t82.5 -91.5t131 -34.5l65 172q-31 0 -56 11t-39.5 35t-14.5 61v218z" />
    <glyph glyph-name="uni0428" unicode="&#x428;" horiz-adv-x="1110" 
d="M836 173h-188v527h-186v-527h-188v527h-194v-700h950v700h-194v-527z" />
    <glyph glyph-name="uni0429" unicode="&#x429;" horiz-adv-x="1187" 
d="M836 173h-188v527h-186v-527h-188v527h-194v-700h879v-142h188v315h-117v527h-194v-527z" />
    <glyph glyph-name="uni042A" unicode="&#x42a;" horiz-adv-x="759" 
d="M310 312h135q31 0 52 -9t32.5 -26.5t11.5 -42.5q0 -24 -11.5 -42t-32.5 -26.5t-52 -8.5h-135v-157h135q96 0 158.5 28.5t93 81t30.5 124.5q0 73 -30.5 125.5t-93 80.5t-158.5 28h-135v-156zM190 528v-528h194v700h-374v-172h180z" />
    <glyph glyph-name="uni042B" unicode="&#x42b;" horiz-adv-x="951" 
d="M681 700v-700h198v700h-198zM72 700v-700h194v700h-194zM196 312h135q31 0 52 -9t32.5 -26.5t11.5 -42.5q0 -24 -11.5 -42t-32.5 -26.5t-52 -8.5h-135v-157h135q96 0 158.5 28.5t93 81t30.5 124.5q0 73 -30.5 125.5t-93 80.5t-158.5 28h-135v-156z" />
    <glyph glyph-name="uni042C" unicode="&#x42c;" horiz-adv-x="645" 
d="M72 700v-700h194v700h-194zM196 312h135q31 0 52 -9t32.5 -26.5t11.5 -42.5q0 -24 -11.5 -42t-32.5 -26.5t-52 -8.5h-135v-157h135q96 0 158.5 28.5t93 81t30.5 124.5q0 73 -30.5 125.5t-93 80.5t-158.5 28h-135v-156z" />
    <glyph glyph-name="uni042D" unicode="&#x42d;" horiz-adv-x="705" 
d="M138 274h359v152h-359v-152zM485 350q0 -59 -33 -102t-83 -67t-103 -24q-49 0 -88.5 12.5t-68.5 29.5t-47 32v-180q42 -30 91.5 -49.5t125.5 -19.5q88 0 160.5 26t124.5 75t80.5 116.5t28.5 150.5t-28.5 150.5t-80.5 116.5t-124.5 75t-160.5 26q-76 0 -125.5 -19
t-91.5 -50v-180q18 15 47 32t68.5 29.5t88.5 12.5q53 0 103 -23.5t83 -67t33 -102.5z" />
    <glyph glyph-name="uni042E" unicode="&#x42e;" horiz-adv-x="1175" 
d="M119 279h373v173h-373v-173zM72 700v-700h194v700h-194zM582 350q0 57 22 100t62 67.5t94 24.5q57 0 96.5 -24.5t60.5 -67.5t21 -100q0 -56 -22 -99.5t-61.5 -68t-94.5 -24.5q-54 0 -94 24.5t-62 68t-22 99.5zM377 350q0 -82 28 -151t79.5 -119.5t121.5 -78t154 -27.5
t154.5 27.5t121.5 78t79 119.5t28 151q0 83 -28.5 150.5t-80.5 116t-121.5 75t-152.5 26.5q-81 0 -150.5 -26.5t-121.5 -75t-81.5 -116t-29.5 -150.5z" />
    <glyph glyph-name="uni042F" unicode="&#x42f;" horiz-adv-x="673" 
d="M411 309h-199l-210 -309h226zM601 700h-194v-700h194v700zM477 536v164h-151q-95 0 -158 -30t-93.5 -82.5t-30.5 -121.5q0 -68 30.5 -121.5t93.5 -83t158 -29.5h151v147h-135q-30 0 -51.5 9t-33 27t-11.5 43t11.5 42.5t33 26.5t51.5 9h135z" />
    <glyph glyph-name="uni0430" unicode="&#x430;" horiz-adv-x="562" 
d="M196 138q0 15 8.5 26.5t24.5 18t37 6.5q38 0 63 -9t49 -27v78q-11 12 -35.5 22.5t-56.5 17t-64 6.5q-60 0 -105 -18t-70 -51t-25 -78q0 -44 21.5 -75.5t60 -48t88.5 -16.5q48 0 86 16.5t60.5 48t22.5 75.5l-16 58q0 -35 -13 -54.5t-34.5 -28t-45.5 -8.5q-15 0 -28 4.5
t-20.5 13.5t-7.5 23zM119 308q11 7 34 15.5t52.5 15.5t62.5 7q38 0 57.5 -17.5t19.5 -45.5v-283h165v322q0 49 -29.5 83t-80.5 51.5t-116 17.5q-62 0 -119 -16.5t-101 -35.5z" />
    <glyph glyph-name="uni0431" unicode="&#x431;" horiz-adv-x="627" 
d="M322 331q25 0 46 -12t33.5 -34.5t12.5 -54.5t-13 -54.5t-34 -34t-46 -11.5q-24 0 -45.5 11.5t-34.5 34t-13 54.5l-193 60q0 -99 36.5 -166t101.5 -100.5t148 -33.5q85 0 145 31t93 85.5t33 123.5q0 70 -32 124t-89 85t-133 31zM152 230h76q0 25 7.5 43.5t20.5 31.5
t30 19.5t36 6.5l16 139q-43 0 -77.5 -16.5t-59 -47.5t-37 -75.5t-12.5 -100.5zM35 290l183 -61l-32 111q0 50 13.5 92.5t48 76.5t95.5 58q55 22 98.5 54.5t70.5 73.5t32 85h-165q-7 -36 -44.5 -61t-105.5 -55q-77 -33 -119.5 -85t-58.5 -123.5t-16 -165.5z" />
    <glyph glyph-name="uni0432" unicode="&#x432;" horiz-adv-x="546" 
d="M174 240v-58h133q14 0 23 -3.5t14.5 -9t8 -12t2.5 -14.5q0 -15 -10 -28t-38 -13h-133v-102h194q79 0 113.5 36.5t34.5 88.5q0 45 -22 70t-60 35t-86 10h-174zM174 220h164q43 0 78.5 12.5t57.5 38t22 64.5q0 45 -22 72.5t-57.5 40t-78.5 12.5h-164v-102h123
q19 0 28.5 -11.5t9.5 -26.5q0 -7 -2.5 -13.5t-7.5 -12t-11.5 -8.5t-16.5 -3h-123v-63zM75 460v-460h165v460h-165z" />
    <glyph glyph-name="uni0433" unicode="&#x433;" horiz-adv-x="366" 
d="M56 460v-460h169v320h140v140h-309z" />
    <glyph glyph-name="uni0434" unicode="&#x434;" horiz-adv-x="720" 
d="M357 266l103 -236l163 40l-266 425l-265 -425l163 -40zM514 0v-90h161v221h-635v-221h166v90h308z" />
    <glyph glyph-name="uni0435" unicode="&#x435;" horiz-adv-x="593" 
d="M126 194h429q2 14 2 26v18q0 73 -29 124.5t-86.5 79.5t-142.5 28q-79 0 -134.5 -24t-87.5 -67t-42 -100q-2 -12 -3 -24t-1 -25q0 -69 31 -123.5t92 -85.5t151 -31q69 0 117 17.5t82 49t57 74.5l-156 31q-10 -17 -25 -28.5t-35 -18t-46 -6.5q-25 0 -46.5 11.5t-34.5 38
t-13 71.5l2 22q0 35 10.5 59t30 36.5t47.5 12.5q24 0 40 -9t25 -26t12 -42h-246v-89z" />
    <glyph glyph-name="uni0436" unicode="&#x436;" horiz-adv-x="941" 
d="M724 460l-200 -190l220 -270h197l-214 268l194 192h-197zM553 460h-164v-460h164v460zM217 460h-197l194 -192l-214 -268h197l220 270z" />
    <glyph glyph-name="uni0437" unicode="&#x437;" horiz-adv-x="556" 
d="M282 230q109 -6 159 24.5t50 81.5q0 38 -26.5 68.5t-71 48t-102.5 17.5q-62 0 -107.5 -20.5t-70.5 -58t-25 -89.5h154q1 16 7.5 26.5t18 16t24.5 5.5q19 0 31 -10.5t12 -26.5q0 -17 -12.5 -28t-40.5 -11v-44zM289 -10q65 0 115 18t78.5 50.5t28.5 75.5q0 61 -59 96.5
t-170 29.5v-60q23 0 38.5 -5t23 -15.5t7.5 -25.5t-8 -25t-22.5 -15.5t-32.5 -5.5q-22 0 -40 12.5t-26 40.5h-162q8 -79 66.5 -125t162.5 -46z" />
    <glyph glyph-name="uni0438" unicode="&#x438;" horiz-adv-x="606" 
d="M545 315l5 180l-489 -350l-5 -180zM221 460h-165v-495l165 150v345zM550 495l-165 -150v-345h165v495z" />
    <glyph glyph-name="uni0439" unicode="&#x439;" horiz-adv-x="606" 
d="M545 315l5 180l-489 -350l-5 -180zM221 460h-165v-495l165 150v345zM550 495l-165 -150v-345h165v495zM145 695q0 -42 19.5 -75.5t57 -53t89.5 -19.5q53 0 90 19.5t56.5 53t19.5 75.5h-107q0 -19 -8.5 -31t-22 -18t-28.5 -6t-28 6t-21.5 18t-8.5 31h-108z" />
    <glyph glyph-name="uni043A" unicode="&#x43a;" horiz-adv-x="618" 
d="M54 460v-460h165v460h-165zM385 460l-196 -190l220 -270h200l-215 270l195 190h-204z" />
    <glyph glyph-name="uni043B" unicode="&#x43b;" horiz-adv-x="643" 
d="M563 460h-480v-252q0 -36 -21.5 -45t-51.5 -9v-154q92 0 144 17.5t73 53t21 89.5v144h150v-304h165v460z" />
    <glyph glyph-name="uni043C" unicode="&#x43c;" horiz-adv-x="672" 
d="M496 0h171l-145 495l-85 -195zM304 150l30 -181l198 310l-10 216zM334 -31l30 181l-215 345l-10 -216zM5 0h171l59 300l-86 195z" />
    <glyph glyph-name="uni043D" unicode="&#x43d;" horiz-adv-x="630" 
d="M102 181h380v123h-380v-123zM410 460v-460h165v460h-165zM55 460v-460h165v460h-165z" />
    <glyph glyph-name="uni043E" unicode="&#x43e;" horiz-adv-x="602" 
d="M31 230q0 -73 35 -127t96.5 -83.5t138.5 -29.5q78 0 139 29.5t96.5 83.5t35.5 127q0 74 -35.5 128t-96.5 83.5t-139 29.5q-77 0 -138.5 -29.5t-96.5 -83.5t-35 -128zM209 230q0 32 12.5 54.5t33.5 34.5t46 12t46 -12t34 -34.5t13 -54.5t-13 -54.5t-34 -34t-46 -11.5
t-46 11.5t-33.5 34t-12.5 54.5z" />
    <glyph glyph-name="uni043F" unicode="&#x43f;" 
d="M535 460h-480v-460h165v312h150v-312h165v460z" />
    <glyph glyph-name="uni0440" unicode="&#x440;" horiz-adv-x="631" 
d="M227 -220v680h-173v-680h173zM600 230q0 83 -31.5 137.5t-80.5 82.5t-104 28q-61 0 -104.5 -31t-66 -86.5t-22.5 -130.5q0 -74 22.5 -130t66 -87t104.5 -31q55 0 104 28t80.5 83t31.5 137zM418 230q0 -30 -13 -52t-35 -33t-49 -11q-23 0 -44.5 10.5t-35.5 31.5t-14 54
t14 54t35.5 31.5t44.5 10.5q27 0 49 -11t35 -32.5t13 -52.5z" />
    <glyph glyph-name="uni0441" unicode="&#x441;" horiz-adv-x="498" 
d="M208 230q0 30 15 54t41 38t56 14q21 0 45 -6.5t46.5 -20.5t36.5 -36v162q-24 14 -57 24.5t-87 10.5q-79 0 -141 -29.5t-97.5 -83t-35.5 -127.5q0 -73 35.5 -127t97.5 -83.5t141 -29.5q54 0 87 10.5t57 25.5v162q-14 -21 -34.5 -35.5t-44.5 -21.5t-49 -7q-30 0 -56 12.5
t-41 36.5t-15 57z" />
    <glyph glyph-name="uni0442" unicode="&#x442;" horiz-adv-x="349" 
d="M5 460v-140h339v140h-339zM92 440v-440h165v440h-165z" />
    <glyph glyph-name="uni0443" unicode="&#x443;" horiz-adv-x="545" 
d="M557 460h-175l-148 -371l91 -1l-149 372h-188l206 -431l-108 -249h171z" />
    <glyph glyph-name="uni0444" unicode="&#x444;" horiz-adv-x="691" 
d="M265 560v-660h161v660h-161zM31 230q0 -73 37 -127t107.5 -83.5t169.5 -29.5q100 0 170.5 29.5t107.5 83.5t37 127q0 74 -37 128t-107.5 83.5t-170.5 29.5q-99 0 -169.5 -29.5t-107.5 -83.5t-37 -128zM185 230q0 32 15 54.5t50.5 34.5t94.5 12t94.5 -12t51 -34.5
t15.5 -54.5t-15.5 -54.5t-51 -34t-94.5 -11.5t-94.5 11.5t-50.5 34t-15 54.5z" />
    <glyph glyph-name="uni0445" unicode="&#x445;" horiz-adv-x="565" 
d="M364 460l-78 -109l-77 109h-199l185 -224l-195 -236h199l87 122l88 -122h191l-192 236l182 224h-191z" />
    <glyph glyph-name="uni0446" unicode="&#x446;" horiz-adv-x="638" 
d="M543 140v320h-173v-320h-142v320h-173v-460h405v-106h163v246h-80z" />
    <glyph glyph-name="uni0447" unicode="&#x447;" horiz-adv-x="566" 
d="M230 108h157v139h-101zM330 460v-460h173v460h-173zM223 460h-173v-132q0 -67 16 -116.5t55.5 -76.5t108.5 -27l56 139q-21 0 -35 6.5t-21 20.5t-7 38v148z" />
    <glyph glyph-name="uni0448" unicode="&#x448;" horiz-adv-x="853" 
d="M509 140v320h-165v-320h-124v320h-165v-460h744v460h-165v-320h-125z" />
    <glyph glyph-name="uni0449" unicode="&#x449;" horiz-adv-x="893" 
d="M509 140v320h-165v-320h-124v320h-165v-460h660v-106h163v246h-80v320h-165v-320h-124z" />
    <glyph glyph-name="uni044A" unicode="&#x44a;" horiz-adv-x="622" 
d="M265 204h109q20 0 31 -10t11 -27q0 -11 -5.5 -19.5t-14.5 -12.5t-22 -4h-109v-131h143q48 0 86 21t60 59t22 87q0 74 -48.5 108.5t-119.5 34.5h-143v-106zM138 320v-320h156v460h-289v-140h133z" />
    <glyph glyph-name="uni044B" unicode="&#x44b;" horiz-adv-x="798" 
d="M571 460v-460h173v460h-173zM55 460v-460h173v460h-173zM195 204h108q20 0 31 -10t11 -27q0 -11 -5 -19.5t-14.5 -12.5t-22.5 -4h-108v-131h143q48 0 86 21t60 59t22 87q0 74 -48.5 108.5t-119.5 34.5h-143v-106z" />
    <glyph glyph-name="uni044C" unicode="&#x44c;" horiz-adv-x="564" 
d="M63 460v-460h173v460h-173zM203 204h108q20 0 31 -10t11 -27q0 -11 -5 -19.5t-14.5 -12.5t-22.5 -4h-108v-131h143q48 0 86 21t60 59t22 87q0 74 -48.5 108.5t-119.5 34.5h-143v-106z" />
    <glyph glyph-name="uni044D" unicode="&#x44d;" horiz-adv-x="498" 
d="M105 283v-106h278l14 106h-292zM290 230q0 -46 -15 -74.5t-40.5 -42t-56.5 -13.5q-25 0 -48.5 7t-44 21t-35.5 36v-138q24 -15 57 -25.5t87 -10.5q80 0 141.5 29.5t97 83.5t35.5 127q0 74 -35.5 127.5t-97 83t-141.5 29.5q-54 0 -87 -10.5t-57 -24.5v-138q15 22 37 36
t46 20.5t45 6.5q31 0 56.5 -15t40.5 -44t15 -71z" />
    <glyph glyph-name="uni044E" unicode="&#x44e;" horiz-adv-x="843" 
d="M102 181h299v123h-299v-123zM55 460v-460h165v460h-165zM271 230q0 -73 35.5 -127t96.5 -83.5t139 -29.5q77 0 138.5 29.5t96.5 83.5t35 127q0 74 -35 128t-96.5 83.5t-138.5 29.5q-78 0 -139 -29.5t-96.5 -83.5t-35.5 -128zM449 230q0 32 13 54.5t34 34.5t46 12
q24 0 45 -12t34 -34.5t13 -54.5t-13 -54.5t-34 -34t-45 -11.5q-25 0 -46 11.5t-34 34t-13 54.5z" />
    <glyph glyph-name="uni044F" unicode="&#x44f;" horiz-adv-x="564" 
d="M214 0l113 200h-160l-130 -200h177zM526 0v460h-173v-460h173zM410 270h-115q-16 0 -27.5 2.5t-17.5 8.5t-6 17t6 17t17.5 8t27.5 2h115v135h-143q-47 0 -91.5 -14.5t-72.5 -46t-28 -85.5q0 -53 28 -87t72.5 -50.5t91.5 -16.5h143v110z" />
    <glyph glyph-name="uni0450" unicode="&#x450;" horiz-adv-x="593" 
d="M126 194h429q2 14 2 26v18q0 73 -29 124.5t-86.5 79.5t-142.5 28q-79 0 -134.5 -24t-87.5 -67t-42 -100q-2 -12 -3 -24t-1 -25q0 -69 31 -123.5t92 -85.5t151 -31q69 0 117 17.5t82 49t57 74.5l-156 31q-10 -17 -25 -28.5t-35 -18t-46 -6.5q-25 0 -46.5 11.5t-34.5 38
t-13 71.5l2 22q0 35 10.5 59t30 36.5t47.5 12.5q24 0 40 -9t25 -26t12 -42h-246v-89zM125 681l180 -150l98 46l-150 160z" />
    <glyph glyph-name="uni0451" unicode="&#x451;" horiz-adv-x="593" 
d="M126 194h429q2 14 2 26v18q0 73 -29 124.5t-86.5 79.5t-142.5 28q-79 0 -134.5 -24t-87.5 -67t-42 -100q-2 -12 -3 -24t-1 -25q0 -69 31 -123.5t92 -85.5t151 -31q69 0 117 17.5t82 49t57 74.5l-156 31q-10 -17 -25 -28.5t-35 -18t-46 -6.5q-25 0 -46.5 11.5t-34.5 38
t-13 71.5l2 22q0 35 10.5 59t30 36.5t47.5 12.5q24 0 40 -9t25 -26t12 -42h-246v-89zM330 621q0 -40 28.5 -65t69.5 -25q40 0 68.5 25t28.5 65q0 39 -28.5 64t-68.5 25q-41 0 -69.5 -25t-28.5 -64zM73 621q0 -40 29 -65t69 -25q41 0 69.5 25t28.5 65q0 39 -28.5 64t-69.5 25
q-40 0 -69 -25t-29 -64z" />
    <glyph glyph-name="uni0453" unicode="&#x453;" horiz-adv-x="366" 
d="M56 460v-460h169v320h140v140h-309zM391 681l-127 56l-150 -160l97 -46z" />
    <glyph glyph-name="uni045C" unicode="&#x45c;" horiz-adv-x="440" 
d="M54 460v-460h165v460h-165zM385 460l-196 -190l220 -270h200l-215 270l195 190h-204zM502 681l-128 56l-150 -160l98 -46z" />
    <glyph glyph-name="uni045D" unicode="&#x45d;" horiz-adv-x="606" 
d="M545 315l5 180l-489 -350l-5 -180zM221 460h-165v-495l165 150v345zM550 495l-165 -150v-345h165v495zM135 705l180 -150l98 46l-150 160z" />
    <glyph glyph-name="uni045E" unicode="&#x45e;" horiz-adv-x="440" 
d="M557 460h-175l-148 -371l91 -1l-149 372h-188l206 -431l-108 -249h171zM106 679q0 -42 19.5 -76t57 -53t89.5 -19q53 0 90 19t57 53t20 76h-108q0 -19 -8.5 -31t-22 -18t-28.5 -6q-14 0 -27.5 6t-22 18t-8.5 31h-108z" />
    <glyph glyph-name="Wgrave" unicode="&#x1e80;" horiz-adv-x="1087" 
d="M543 795l97 46l-150 160l-127 -56zM730 335l-187 400l-186 -400l-123 365h-232l311 -743l230 386l231 -386l311 743h-232z" />
    <glyph glyph-name="wgrave" unicode="&#x1e81;" horiz-adv-x="785" 
d="M391 555l97 46l-150 160l-127 -56zM-11 460l248 -487l155 255l156 -255l248 487h-179l-90 -217l-136 252l-133 -252l-90 217h-179z" />
    <glyph glyph-name="Wacute" unicode="&#x1e82;" horiz-adv-x="1087" 
d="M543 795l180 150l-127 56l-150 -160zM730 335l-187 400l-186 -400l-123 365h-232l311 -743l230 386l231 -386l311 743h-232z" />
    <glyph glyph-name="wacute" unicode="&#x1e83;" horiz-adv-x="785" 
d="M391 555l180 150l-127 56l-150 -160zM-11 460l248 -487l155 255l156 -255l248 487h-179l-90 -217l-136 252l-133 -252l-90 217h-179z" />
    <glyph glyph-name="Wdieresis" unicode="&#x1e84;" horiz-adv-x="1087" 
d="M574 885q0 -40 28.5 -65t69.5 -25t69.5 25t28.5 65t-28.5 64.5t-69.5 24.5t-69.5 -24.5t-28.5 -64.5zM318 885q0 -40 28.5 -65t68.5 -25q41 0 69.5 25t28.5 65t-28.5 64.5t-69.5 24.5q-40 0 -68.5 -24.5t-28.5 -64.5zM730 335l-187 400l-186 -400l-123 365h-232l311 -743
l230 386l231 -386l311 743h-232z" />
    <glyph glyph-name="wdieresis" unicode="&#x1e85;" horiz-adv-x="785" 
d="M422 645q0 -40 28.5 -65t69.5 -25t69.5 25t28.5 65t-28.5 64.5t-69.5 24.5t-69.5 -24.5t-28.5 -64.5zM166 645q0 -40 28.5 -65t68.5 -25q41 0 69.5 25t28.5 65t-28.5 64.5t-69.5 24.5q-40 0 -68.5 -24.5t-28.5 -64.5zM-11 460l248 -487l155 255l156 -255l248 487h-179
l-90 -217l-136 252l-133 -252l-90 217h-179z" />
    <glyph glyph-name="uni1E86" unicode="&#x1e86;" horiz-adv-x="1087" 
d="M445 885q0 -40 28.5 -65t69.5 -25t69.5 25t28.5 65t-28.5 65t-69.5 25t-69.5 -25t-28.5 -65zM730 335l-187 400l-186 -400l-123 365h-232l311 -743l230 386l231 -386l311 743h-232z" />
    <glyph glyph-name="uni1E87" unicode="&#x1e87;" horiz-adv-x="785" 
d="M293 645q0 -40 28.5 -65t69.5 -25t69.5 25t28.5 65t-28.5 65t-69.5 25t-69.5 -25t-28.5 -65zM-11 460l248 -487l155 255l156 -255l248 487h-179l-90 -217l-136 252l-133 -252l-90 217h-179z" />
    <glyph glyph-name="uni1E88" unicode="&#x1e88;" horiz-adv-x="1087" 
d="M445 -193q0 -40 28.5 -65t69.5 -25t69.5 25t28.5 65t-28.5 65t-69.5 25t-69.5 -25t-28.5 -65zM730 335l-187 400l-186 -400l-123 365h-232l311 -743l230 386l231 -386l311 743h-232z" />
    <glyph glyph-name="uni1E89" unicode="&#x1e89;" horiz-adv-x="785" 
d="M294 -176q0 -40 28.5 -65t69.5 -25t69.5 25t28.5 65t-28.5 65t-69.5 25t-69.5 -25t-28.5 -65zM-11 460l248 -487l155 255l156 -255l248 487h-179l-90 -217l-136 252l-133 -252l-90 217h-179z" />
    <glyph glyph-name="uni1E9E" unicode="&#x1e9e;" horiz-adv-x="844" 
d="M575 -12q-63 0 -128.5 11t-119.5 29l38 156q45 -18 85 -28.5t68 -10.5q23 0 40.5 5t27.5 16.5t10 28.5q0 24 -13.5 39.5t-33.5 26.5t-40 23t-33 29.5t-13 43.5q0 19 7 33.5t17.5 25.5t21 21t17.5 21t7 26q0 17 -12.5 30.5t-34 21.5t-49.5 8q-55 0 -90 -25t-51 -70.5
t-16 -108.5l1 -342h-201v361q0 79 18 145t59.5 114t110.5 74t169 26q104 0 172 -25.5t102 -68.5t34 -93q0 -27 -7 -50t-17 -41t-20.5 -33t-17.5 -27t-7 -22q0 -13 12.5 -23.5t31.5 -22t37.5 -29t31 -44.5t12.5 -67q0 -58 -26.5 -99t-77 -63t-122.5 -22z" />
    <glyph glyph-name="Ygrave" unicode="&#x1ef2;" horiz-adv-x="689" 
d="M345 778l97 46l-150 160l-127 -56zM468 700l-123 -245l-124 245h-224l249 -422v-278h198v280l248 420h-224z" />
    <glyph glyph-name="ygrave" unicode="&#x1ef3;" horiz-adv-x="545" 
d="M272 531l97 46l-150 160l-127 -56zM557 460h-175l-148 -371l91 -1l-149 372h-188l206 -431l-108 -249h171z" />
    <glyph glyph-name="uni2010" unicode="&#x2010;" horiz-adv-x="226" 
d="M5 164h216v147h-216v-147z" />
    <glyph glyph-name="figuredash" unicode="&#x2012;" horiz-adv-x="638" 
d="M70 164h486v147h-486v-147z" />
    <glyph glyph-name="endash" unicode="&#x2013;" horiz-adv-x="796" 
d="M70 164h648v147h-648v-147z" />
    <glyph glyph-name="emdash" unicode="&#x2014;" horiz-adv-x="955" 
d="M70 164h811v147h-811v-147z" />
    <glyph glyph-name="quoteleft" unicode="&#x2018;" horiz-adv-x="348" 
d="M246 438l52 262h-124l-104 -262h176z" />
    <glyph glyph-name="quoteright" unicode="&#x2019;" horiz-adv-x="348" 
d="M102 700l-52 -262h124l104 262h-176z" />
    <glyph glyph-name="quotesinglbase" unicode="&#x201a;" horiz-adv-x="348" 
d="M112 80l-52 -262h124l104 262h-176z" />
    <glyph glyph-name="quotedblleft" unicode="&#x201c;" horiz-adv-x="588" 
d="M246 438l52 262h-124l-104 -262h176zM486 438l52 262h-124l-104 -262h176z" />
    <glyph glyph-name="quotedblright" unicode="&#x201d;" horiz-adv-x="588" 
d="M102 700l-52 -262h124l104 262h-176zM342 700l-52 -262h124l104 262h-176z" />
    <glyph glyph-name="quotedblbase" unicode="&#x201e;" horiz-adv-x="588" 
d="M102 80l-52 -262h124l104 262h-176zM342 80l-52 -262h124l104 262h-176z" />
    <glyph glyph-name="dagger" unicode="&#x2020;" horiz-adv-x="651" 
d="M90 540v-140h471v140h-471zM245 700v-850h161v850h-161z" />
    <glyph glyph-name="daggerdbl" unicode="&#x2021;" horiz-adv-x="651" 
d="M90 168v-139h471v139h-471zM90 540v-140h471v140h-471zM245 700v-850h161v850h-161z" />
    <glyph glyph-name="bullet" unicode="&#x2022;" horiz-adv-x="300" 
d="M59 451q0 -42 29.5 -72.5t76.5 -30.5t76 30.5t29 72.5q0 43 -29 73.5t-76 30.5t-76.5 -30.5t-29.5 -73.5z" />
    <glyph glyph-name="ellipsis" unicode="&#x2026;" horiz-adv-x="932" 
d="M59 76q0 -42 29.5 -72.5t76.5 -30.5t76 30.5t29 72.5q0 43 -29 73.5t-76 30.5t-76.5 -30.5t-29.5 -73.5zM359 76q0 -42 29.5 -72.5t76.5 -30.5t76 30.5t29 72.5q0 43 -29 73.5t-76 30.5t-76.5 -30.5t-29.5 -73.5zM659 76q0 -42 29.5 -72.5t76.5 -30.5t76 30.5t29 72.5
q0 43 -29 73.5t-76 30.5t-76.5 -30.5t-29.5 -73.5z" />
    <glyph glyph-name="perthousand" unicode="&#x2030;" horiz-adv-x="1446" 
d="M1030 171q0 -53 26.5 -96.5t71.5 -69.5t100 -26q57 0 101.5 26t71 69.5t26.5 96.5t-26.5 96.5t-71 69.5t-101.5 26q-55 0 -100 -26t-71.5 -69.5t-26.5 -96.5zM1171 171q0 16 7.5 29t20.5 21t29 8q17 0 30 -8t21 -21t8 -29q0 -15 -8 -28.5t-21 -21.5t-30 -8q-16 0 -29 8
t-20.5 21.5t-7.5 28.5zM19 530q0 -53 26.5 -97t71.5 -69.5t100 -25.5q56 0 101 25.5t71.5 69.5t26.5 97t-26.5 96.5t-71.5 69.5t-101 26q-55 0 -100 -26t-71.5 -69.5t-26.5 -96.5zM159 530q0 16 8 29t21 21t29 8q17 0 30 -8t20.5 -21t7.5 -29q0 -15 -7.5 -29t-20.5 -21.5
t-30 -7.5q-16 0 -29 7.5t-21 21.5t-8 29zM553 171q0 -53 26.5 -96.5t72 -69.5t100.5 -26q56 0 100.5 26t71 69.5t26.5 96.5t-26.5 96.5t-71 69.5t-100.5 26q-55 0 -100.5 -26t-72 -69.5t-26.5 -96.5zM694 171q0 16 7.5 29t20.5 21t30 8q16 0 29 -8t21 -21t8 -29
q0 -15 -8 -28.5t-21 -21.5t-29 -8q-17 0 -30 8t-20.5 21.5t-7.5 28.5zM676 700l-563 -700h180l563 700h-180z" />
    <glyph glyph-name="uni2031" unicode="&#x2031;" horiz-adv-x="1923" 
d="M1507 171q0 -53 26.5 -96.5t71.5 -69.5t100 -26q56 0 101 26t71.5 69.5t26.5 96.5t-26.5 96.5t-71.5 69.5t-101 26q-55 0 -100 -26t-71.5 -69.5t-26.5 -96.5zM1647 171q0 16 8 29t21 21t29 8q17 0 30 -8t20.5 -21t7.5 -29q0 -15 -7.5 -28.5t-20.5 -21.5t-30 -8
q-16 0 -29 8t-21 21.5t-8 28.5zM1030 171q0 -53 26.5 -96.5t71.5 -69.5t100 -26q57 0 101.5 26t71 69.5t26.5 96.5t-26.5 96.5t-71 69.5t-101.5 26q-55 0 -100 -26t-71.5 -69.5t-26.5 -96.5zM1171 171q0 16 7.5 29t20.5 21t29 8q17 0 30 -8t21 -21t8 -29q0 -15 -8 -28.5
t-21 -21.5t-30 -8q-16 0 -29 8t-20.5 21.5t-7.5 28.5zM19 530q0 -53 26.5 -97t71.5 -69.5t100 -25.5q56 0 101 25.5t71.5 69.5t26.5 97t-26.5 96.5t-71.5 69.5t-101 26q-55 0 -100 -26t-71.5 -69.5t-26.5 -96.5zM159 530q0 16 8 29t21 21t29 8q17 0 30 -8t20.5 -21t7.5 -29
q0 -15 -7.5 -29t-20.5 -21.5t-30 -7.5q-16 0 -29 7.5t-21 21.5t-8 29zM553 171q0 -53 26.5 -96.5t72 -69.5t100.5 -26q56 0 100.5 26t71 69.5t26.5 96.5t-26.5 96.5t-71 69.5t-100.5 26q-55 0 -100.5 -26t-72 -69.5t-26.5 -96.5zM694 171q0 16 7.5 29t20.5 21t30 8
q16 0 29 -8t21 -21t8 -29q0 -15 -8 -28.5t-21 -21.5t-29 -8q-17 0 -30 8t-20.5 21.5t-7.5 28.5zM676 700l-563 -700h180l563 700h-180z" />
    <glyph glyph-name="guilsinglleft" unicode="&#x2039;" horiz-adv-x="350" 
d="M154 259l150 186l-106 69l-174 -259l174 -259l106 69z" />
    <glyph glyph-name="guilsinglright" unicode="&#x203a;" horiz-adv-x="350" 
d="M196 251l-150 -186l106 -69l174 259l-174 259l-106 -69z" />
    <glyph glyph-name="uni203D" unicode="&#x203d;" horiz-adv-x="647" 
d="M439 476q0 -38 -22 -66.5t-56.5 -44.5t-70.5 -16l10 -75q35 0 74.5 8.5t78.5 25.5t71.5 43.5t51.5 63.5t19 85q0 54 -22.5 95t-61 69t-86 42t-98.5 14q-63 0 -119 -18.5t-98.5 -48.5t-65.5 -65l113 -97q16 33 40.5 52t53.5 27.5t58 8.5q40 0 69 -11.5t45 -34t16 -57.5z
M220 502l30 -292h99l29 292h-158zM199 68q0 -40 30.5 -67.5t76.5 -27.5q48 0 78 27.5t30 67.5q0 41 -30 68.5t-78 27.5q-46 0 -76.5 -27.5t-30.5 -68.5z" />
    <glyph glyph-name="fraction" unicode="&#x2044;" horiz-adv-x="737" 
d="M580 700l-520 -700h138l520 700h-138z" />
    <glyph glyph-name="uni2070" unicode="&#x2070;" horiz-adv-x="396" 
d="M129 490q0 37 8.5 63.5t24.5 41.5t36 15q21 0 36.5 -15t24 -41.5t8.5 -63.5t-8.5 -63.5t-24 -41.5t-36.5 -15q-20 0 -36 15t-24.5 41.5t-8.5 63.5zM18 490q0 -69 23 -118t63.5 -74.5t93.5 -25.5q56 0 96 25.5t62 74.5t22 118q0 70 -22 118.5t-62 74t-96 25.5
q-53 0 -93.5 -25.5t-63.5 -74t-23 -118.5z" />
    <glyph glyph-name="uni2074" unicode="&#x2074;" horiz-adv-x="438" 
d="M11 352h405v98h-112l-10 -17h-187zM128 391l115 152v-163l-14 -6v-94h121v420h-91l-248 -348z" />
    <glyph glyph-name="uni2075" unicode="&#x2075;" horiz-adv-x="396" 
d="M371 411q0 45 -18.5 75t-47.5 46t-62 16t-61.5 -8.5t-53.5 -35.5l-83 -54q32 14 65 18.5t56 4.5q28 0 53 -10t25 -37t-21 -38.5t-57 -11.5q-19 0 -48 9t-58 29l-38 -100q32 -17 73.5 -30.5t99.5 -13.5q41 0 81.5 14t67.5 46t27 81zM189 597h172v101h-257l-59 -248l109 49
z" />
    <glyph glyph-name="uni2076" unicode="&#x2076;" horiz-adv-x="394" 
d="M133 428q0 19 8.5 33.5t23 22.5t33.5 8q18 0 32 -8t22.5 -22.5t8.5 -33.5q0 -28 -18 -45t-45 -17q-28 0 -46.5 17t-18.5 45zM189 696l-116 -142q-22 -28 -38.5 -58.5t-16.5 -67.5q0 -53 25 -89.5t65.5 -54t89.5 -17.5t89.5 17.5t65 54t24.5 89.5q0 44 -20.5 74.5
t-50.5 46.5t-61 16q-23 0 -38 -5.5t-33 -21.5l25 12l137 146h-147z" />
    <glyph glyph-name="uni2077" unicode="&#x2077;" horiz-adv-x="386" 
d="M21 591h187l-159 -311h126l203 420h-357v-109z" />
    <glyph glyph-name="uni2078" unicode="&#x2078;" horiz-adv-x="374" 
d="M35 599q0 -39 23 -65t58 -38.5t69 -12.5q35 0 69.5 12.5t57.5 38.5t23 65q0 37 -20.5 62t-55 37.5t-74.5 12.5t-74 -12.5t-55 -37.5t-21 -62zM145 588q0 20 11 31t29 11q19 0 30 -11t11 -31q0 -13 -5 -22.5t-14 -15t-22 -5.5q-11 0 -20.5 5.5t-14.5 15t-5 22.5zM20 394
q0 -39 23.5 -67.5t61.5 -43t80 -14.5q43 0 80.5 14.5t61 43t23.5 67.5q0 35 -15.5 58.5t-40.5 38t-54 21.5t-55 7t-54.5 -7t-53.5 -21.5t-41 -38t-16 -58.5zM137 412q0 13 6.5 24t17 17t24.5 6t25 -6t17 -17t6 -24q0 -24 -13.5 -36.5t-34.5 -12.5q-20 0 -34 12.5t-14 36.5z
" />
    <glyph glyph-name="uni2079" unicode="&#x2079;" horiz-adv-x="390" 
d="M260 552q0 -19 -8 -33.5t-22.5 -22.5t-32.5 -8t-32.5 8t-23 22.5t-8.5 33.5q0 29 18.5 45.5t45.5 16.5t45 -16.5t18 -45.5zM206 284l114 142q24 28 40 59t16 67q0 54 -24 90t-65 53.5t-90 17.5t-89.5 -17.5t-65 -53.5t-24.5 -90q0 -43 20 -74t50.5 -47t60.5 -16
q23 0 38.5 5.5t33.5 21.5l-25 -12l-138 -146h148z" />
    <glyph glyph-name="uni2080" unicode="&#x2080;" horiz-adv-x="396" 
d="M129 210q0 37 8.5 63.5t24.5 41.5t36 15q21 0 36.5 -15t24 -41.5t8.5 -63.5t-8.5 -63.5t-24 -41.5t-36.5 -15q-20 0 -36 15t-24.5 41.5t-8.5 63.5zM18 210q0 -69 23 -118t63.5 -74.5t93.5 -25.5q56 0 96 25.5t62 74.5t22 118q0 70 -22 118.5t-62 74t-96 25.5
q-53 0 -93.5 -25.5t-63.5 -74t-23 -118.5z" />
    <glyph glyph-name="uni2081" unicode="&#x2081;" horiz-adv-x="375" 
d="M90 288l108 26v-313h111v428l-219 -42v-99z" />
    <glyph glyph-name="uni2082" unicode="&#x2082;" horiz-adv-x="430" 
d="M29 2h374v106h-162l87 73q29 23 45.5 51t16.5 61q0 35 -19 66.5t-56 51.5t-91 20q-57 0 -96.5 -23t-59.5 -61.5t-20 -83.5h114q0 31 16.5 50.5t41.5 19.5q18 0 29 -7t16 -17.5t5 -22.5q0 -25 -15 -46t-42 -49z" />
    <glyph glyph-name="uni2083" unicode="&#x2083;" horiz-adv-x="389" 
d="M164 202q53 0 96 11.5t68.5 35.5t25.5 62q0 49 -41 83t-116 34q-72 0 -115 -39t-43 -97h107q0 21 14 33t36 12t32.5 -9t10.5 -25q0 -13 -9.5 -25t-26.5 -19.5t-39 -7.5v-49zM191 -11q84 0 129.5 36t45.5 91q0 43 -26 69.5t-71 39t-105 12.5v-57q31 0 50.5 -7t28 -19
t8.5 -27q0 -25 -16 -35.5t-39 -10.5t-41.5 13.5t-18.5 45.5h-115q0 -38 20 -73t58.5 -56.5t91.5 -21.5z" />
    <glyph glyph-name="uni2084" unicode="&#x2084;" horiz-adv-x="445" 
d="M10 72h405v98h-113l-10 -17h-187zM127 111l115 152v-163l-15 -6v-94h122v420h-92l-247 -348z" />
    <glyph glyph-name="uni2085" unicode="&#x2085;" horiz-adv-x="408" 
d="M375 131q0 45 -18.5 75t-47.5 46t-62 16t-61.5 -8.5t-53.5 -35.5l-83 -54q32 14 65 18.5t56 4.5q28 0 53 -10t25 -37t-21 -38.5t-57 -11.5q-19 0 -48 9t-58 29l-38 -100q32 -17 73.5 -30.5t99.5 -13.5q41 0 81.5 14t67.5 46t27 81zM193 317h172v101h-257l-59 -248l109 49
z" />
    <glyph glyph-name="uni2086" unicode="&#x2086;" horiz-adv-x="409" 
d="M138 148q0 19 8.5 33.5t23 22.5t32.5 8t32.5 -8t23 -22.5t8.5 -33.5q0 -28 -18.5 -45t-45.5 -17t-45.5 17t-18.5 45zM193 416l-115 -142q-22 -28 -38.5 -58.5t-16.5 -67.5q0 -53 24.5 -89.5t65 -54t89.5 -17.5t90 17.5t65.5 54t24.5 89.5q0 44 -20.5 74.5t-51 46.5
t-61.5 16q-23 0 -37.5 -5.5t-33.5 -21.5l26 12l137 146h-148z" />
    <glyph glyph-name="uni2087" unicode="&#x2087;" horiz-adv-x="393" 
d="M26 311h186l-158 -311h125l204 420h-357v-109z" />
    <glyph glyph-name="uni2088" unicode="&#x2088;" horiz-adv-x="382" 
d="M41 319q0 -39 23 -65t58 -38.5t69 -12.5q35 0 69.5 12.5t57.5 38.5t23 65q0 37 -21 62t-55 37.5t-74 12.5t-74.5 -12.5t-55 -37.5t-20.5 -62zM150 308q0 20 11 31t30 11q18 0 29 -11t11 -31q0 -13 -5 -22.5t-14 -15t-21 -5.5t-21 5.5t-14.5 15t-5.5 22.5zM26 114
q0 -39 23.5 -67.5t61.5 -43t80 -14.5q43 0 80.5 14.5t61 43t23.5 67.5q0 35 -16 58.5t-41 38t-53.5 21.5t-54.5 7t-55 -7t-54 -21.5t-40.5 -38t-15.5 -58.5zM143 132q0 13 6 24t17 17t25 6t24.5 -6t17 -17t6.5 -24q0 -24 -13.5 -36.5t-34.5 -12.5t-34.5 12.5t-13.5 36.5z
" />
    <glyph glyph-name="uni2089" unicode="&#x2089;" horiz-adv-x="414" 
d="M268 272q0 -19 -8.5 -33.5t-23 -22.5t-32.5 -8t-32.5 8t-23 22.5t-8.5 33.5q0 29 18.5 45.5t45.5 16.5q28 0 46 -16.5t18 -45.5zM213 4l115 142q23 28 39.5 59t16.5 67q0 54 -24.5 90t-65.5 53.5t-90 17.5t-89.5 -17.5t-65 -53.5t-24.5 -90q0 -43 20 -74t50.5 -47
t60.5 -16q23 0 39 5.5t33 21.5l-25 -12l-138 -146h148z" />
    <glyph glyph-name="Euro" unicode="&#x20ac;" horiz-adv-x="677" 
d="M65 374h489v95h-489v-95zM47 239h489v95h-489v-95zM276 350q0 74 19.5 121.5t53.5 70.5t77 23q86 0 150 -62v179q-34 20 -71.5 30.5t-78.5 10.5q-73 0 -132 -28.5t-100 -79.5t-62.5 -119t-21.5 -146q0 -105 38 -189t108.5 -133.5t169.5 -49.5q41 0 78.5 11t71.5 30v178
q-64 -62 -150 -62q-43 0 -77 23t-53.5 71t-19.5 121z" />
    <glyph glyph-name="ruble" unicode="&#x20bd;" horiz-adv-x="727" 
d="M150 700v-700h194v700h-194zM273 543h137q32 0 54 -4.5t34 -16.5t12 -35t-12 -35t-34 -16.5t-54 -4.5h-137v-157h137q96 0 159 22t94.5 69.5t31.5 121.5q0 75 -31.5 122t-94.5 69t-159 22h-137v-157zM333 69h216v147h-216v-147zM30 282h216v148h-216v-148zM30 69h216v147
h-216v-147z" />
    <glyph glyph-name="trademark" unicode="&#x2122;" horiz-adv-x="770" 
d="M29 613h98v-263h97v263h98v87h-293v-87zM614 591l29 -241h103l-61 368zM381 718l-61 -368h103l30 241zM685 718l-152 -202l-152 202v-124l152 -212l152 212v124z" />
    <glyph glyph-name="uni2150" unicode="&#x2150;" horiz-adv-x="971" 
d="M616 700l-520 -700h138l520 700h-138zM22 561l107 26v-313h112v428l-219 -42v-99zM595 311h186l-158 -311h125l204 420h-357v-109z" />
    <glyph glyph-name="uni2151" unicode="&#x2151;" horiz-adv-x="913" 
d="M608 700l-520 -700h138l520 700h-138zM22 561l107 26v-313h112v428l-219 -42v-99zM773 272q0 -19 -8 -33.5t-22.5 -22.5t-32.5 -8t-32.5 8t-23 22.5t-8.5 33.5q0 29 18.5 45.5t45.5 16.5t45 -16.5t18 -45.5zM719 4l114 142q24 28 40 59t16 67q0 54 -24 90t-65 53.5
t-90 17.5t-90 -17.5t-65 -53.5t-24 -90q0 -43 20 -74t50.5 -47t60.5 -16q23 0 39 5.5t33 21.5l-25 -12l-138 -146h148z" />
    <glyph glyph-name="uni2152" unicode="&#x2152;" horiz-adv-x="1249" 
d="M608 700l-520 -700h138l520 700h-138zM22 561l107 26v-313h112v428l-219 -42v-99zM569 288l107 26v-313h112v428l-219 -42v-99zM967 210q0 37 8 63.5t24 41.5t36 15q21 0 36.5 -15t24 -41.5t8.5 -63.5t-8.5 -63.5t-24 -41.5t-36.5 -15q-20 0 -36 15t-24 41.5t-8 63.5z
M855 210q0 -69 23 -118t63.5 -74.5t93.5 -25.5q56 0 96 25.5t62 74.5t22 118q0 70 -22 118.5t-62 74t-96 25.5q-53 0 -93.5 -25.5t-63.5 -74t-23 -118.5z" />
    <glyph glyph-name="onethird" unicode="&#x2153;" horiz-adv-x="908" 
d="M608 700l-520 -700h137l520 700h-137zM22 561l107 26v-313h112v428l-219 -42v-99zM682 202q53 0 96 11.5t69 35.5t26 62q0 49 -41 83t-117 34q-71 0 -114 -39t-43 -97h107q0 21 14 33t36 12t32.5 -9t10.5 -25q0 -13 -10 -25t-27 -19.5t-39 -7.5v-49zM710 -11q83 0 129 36
t46 91q0 43 -26 69.5t-71 39t-106 12.5v-57q32 0 51.5 -7t28 -19t8.5 -27q0 -25 -16 -35.5t-39 -10.5t-41.5 13.5t-18.5 45.5h-115q0 -38 20 -73t58 -56.5t92 -21.5z" />
    <glyph glyph-name="twothirds" unicode="&#x2154;" horiz-adv-x="1043" 
d="M760 700l-520 -700h137l520 700h-137zM30 282h373v106h-161l87 73q29 23 45.5 51t16.5 61q0 35 -19 66.5t-56 51.5t-91 20q-57 0 -96.5 -23t-59.5 -61.5t-20 -83.5h114q0 31 16.5 50.5t41.5 19.5q18 0 29 -7t16 -17.5t5 -22.5q0 -25 -15 -46t-42 -49zM817 202
q53 0 96.5 11.5t69 35.5t25.5 62q0 49 -41 83t-117 34q-71 0 -114 -39t-43 -97h107q0 21 14 33t36 12t32.5 -9t10.5 -25q0 -13 -9.5 -25t-26.5 -19.5t-40 -7.5v-49zM845 -11q84 0 129.5 36t45.5 91q0 43 -26 69.5t-71 39t-106 12.5v-57q32 0 51.5 -7t28 -19t8.5 -27
q0 -25 -16 -35.5t-39 -10.5t-41.5 13.5t-18.5 45.5h-115q0 -38 20 -73t58 -56.5t92 -21.5z" />
    <glyph glyph-name="uni2155" unicode="&#x2155;" horiz-adv-x="897" 
d="M608 700l-520 -700h138l520 700h-138zM22 561l107 26v-313h112v428l-219 -42v-99zM876 131q0 45 -18.5 75t-47.5 46t-62 16t-61.5 -8.5t-53.5 -35.5l-83 -54q32 14 65 18.5t56 4.5q28 0 53 -10t25 -37t-21 -38.5t-57 -11.5q-19 0 -48 9t-58 29l-38 -100
q32 -17 73.5 -30.5t99.5 -13.5q41 0 81.5 14t67.5 46t27 81zM694 317h172v101h-257l-59 -248l109 49z" />
    <glyph glyph-name="uni2156" unicode="&#x2156;" horiz-adv-x="1045" 
d="M760 700l-520 -700h137l520 700h-137zM30 282h373v106h-161l87 73q29 23 45.5 51t16.5 61q0 35 -19 66.5t-56 51.5t-91 20q-57 0 -96.5 -23t-59.5 -61.5t-20 -83.5h114q0 31 16.5 50.5t41.5 19.5q18 0 29 -7t16 -17.5t5 -22.5q0 -25 -15 -46t-42 -49zM1011 131
q0 45 -18.5 75t-47.5 46t-62 16t-61.5 -8.5t-53.5 -35.5l-83 -54q32 14 65 18.5t56 4.5q28 0 53 -10t25 -37t-21 -38.5t-57 -11.5q-19 0 -48 9t-58 29l-38 -100q32 -17 73.5 -30.5t99.5 -13.5q41 0 81.5 14t67.5 46t27 81zM830 317h171v101h-256l-60 -248l109 49z" />
    <glyph glyph-name="uni2157" unicode="&#x2157;" horiz-adv-x="960" 
d="M679 700l-520 -700h138l520 700h-138zM163 482q53 0 96 11.5t68.5 35.5t25.5 62q0 49 -40.5 83t-116.5 34q-71 0 -114.5 -39t-43.5 -97h107q0 21 14.5 33t35.5 12q23 0 33 -9t10 -25q0 -13 -9.5 -25t-26.5 -19.5t-39 -7.5v-49zM191 269q83 0 128.5 36t45.5 91
q0 43 -25.5 69.5t-71 39t-105.5 12.5v-57q32 0 51 -7t27.5 -19t8.5 -27q0 -25 -15.5 -35.5t-39.5 -10.5q-23 0 -41.5 13.5t-18.5 45.5h-115q0 -38 20.5 -73t58.5 -56.5t92 -21.5zM923 131q0 45 -18.5 75t-48 46t-61.5 16q-34 0 -62 -8.5t-53 -35.5l-83 -54q32 14 65 18.5
t56 4.5q28 0 53 -10t25 -37t-21 -38.5t-57 -11.5q-20 0 -49 9t-57 29l-38 -100q32 -17 73.5 -30.5t99.5 -13.5q41 0 81 14t67.5 46t27.5 81zM741 317h171v101h-256l-59 -248l108 49z" />
    <glyph glyph-name="uni2158" unicode="&#x2158;" horiz-adv-x="1060" 
d="M746 699l-520 -700h138l520 700h-138zM20 352h404v98h-112l-10 -17h-187zM136 391l116 152v-163l-15 -6v-94h121v420h-91l-247 -348zM1031 130q0 45 -18.5 75.5t-48 46t-62.5 15.5t-61.5 -8.5t-53.5 -34.5l-82 -55q32 14 65 18.5t55 4.5q28 0 53 -10t25 -37t-20.5 -38.5
t-57.5 -11.5q-19 0 -48 9.5t-58 28.5l-38 -100q33 -17 74 -30.5t99 -13.5q41 0 81.5 14.5t68 46t27.5 80.5zM849 317h171v100h-256l-59 -248l108 49z" />
    <glyph glyph-name="uni2159" unicode="&#x2159;" horiz-adv-x="912" 
d="M633 700l-520 -700h137l520 700h-137zM22 561l107 26v-313h112v428l-219 -42v-99zM639 148q0 19 8.5 33.5t23 22.5t32.5 8q19 0 33 -8t22.5 -22.5t8.5 -33.5q0 -28 -18 -45t-46 -17q-27 0 -45.5 17t-18.5 45zM695 416l-116 -142q-22 -28 -38.5 -58.5t-16.5 -67.5
q0 -53 24.5 -89.5t65.5 -54t89 -17.5q49 0 90 17.5t65.5 54t24.5 89.5q0 44 -20.5 74.5t-51 46.5t-60.5 16q-24 0 -38.5 -5.5t-33.5 -21.5l26 12l137 146h-147z" />
    <glyph glyph-name="uni215A" unicode="&#x215a;" horiz-adv-x="953" 
d="M698 700l-520 -700h138l520 700h-138zM379 411q0 45 -18.5 75t-47.5 46t-62 16t-61.5 -8.5t-53.5 -35.5l-83 -54q32 14 65 18.5t56 4.5q28 0 53 -10t25 -37t-21 -38.5t-57 -11.5q-19 0 -48 9t-58 29l-38 -100q32 -17 73.5 -30.5t99.5 -13.5q41 0 81.5 14t67.5 46t27 81z
M197 597h172v101h-257l-59 -248l109 49zM681 148q0 19 8 33.5t23 22.5t33 8t32 -8t22.5 -22.5t8.5 -33.5q0 -28 -18 -45t-45 -17t-45.5 17t-18.5 45zM736 416l-115 -142q-23 -28 -39.5 -58.5t-16.5 -67.5q0 -53 24.5 -89.5t65.5 -54t90 -17.5t90 17.5t65 54t24 89.5
q0 44 -20 74.5t-50.5 46.5t-61.5 16q-23 0 -38 -5.5t-33 -21.5l25 12l137 146h-147z" />
    <glyph glyph-name="oneeighth" unicode="&#x215b;" horiz-adv-x="929" 
d="M633 700l-520 -700h137l520 700h-137zM22 561l107 26v-313h112v428l-219 -42v-99zM584 319q0 -39 23 -65t58 -38.5t69 -12.5q35 0 69.5 12.5t57.5 38.5t23 65q0 37 -21 62t-55 37.5t-74 12.5t-74.5 -12.5t-55 -37.5t-20.5 -62zM693 308q0 20 11 31t30 11q18 0 29 -11
t11 -31q0 -13 -5 -22.5t-14 -15t-21 -5.5t-21 5.5t-14.5 15t-5.5 22.5zM569 114q0 -39 23.5 -67.5t61.5 -43t80 -14.5q43 0 80.5 14.5t61 43t23.5 67.5q0 35 -16 58.5t-41 38t-53.5 21.5t-54.5 7t-55 -7t-54 -21.5t-40.5 -38t-15.5 -58.5zM686 132q0 13 6 24t17 17t25 6
t24.5 -6t17 -17t6.5 -24q0 -24 -14 -36.5t-34 -12.5q-21 0 -34.5 12.5t-13.5 36.5z" />
    <glyph glyph-name="threeeighths" unicode="&#x215c;" horiz-adv-x="984" 
d="M687 700l-520 -700h138l520 700h-138zM163 482q53 0 96 11.5t68.5 35.5t25.5 62q0 49 -40.5 83t-116.5 34q-71 0 -114.5 -39t-43.5 -97h107q0 21 14.5 33t35.5 12q23 0 33 -9t10 -25q0 -13 -9.5 -25t-26.5 -19.5t-39 -7.5v-49zM191 269q83 0 128.5 36t45.5 91
q0 43 -25.5 69.5t-71 39t-105.5 12.5v-57q32 0 51 -7t27.5 -19t8.5 -27q0 -25 -15.5 -35.5t-39.5 -10.5q-23 0 -41.5 13.5t-18.5 45.5h-115q0 -38 20.5 -73t58.5 -56.5t92 -21.5zM639 319q0 -39 23 -65t58 -38.5t69 -12.5q35 0 69 12.5t57 38.5t23 65q0 37 -20.5 62
t-54.5 37.5t-74 12.5q-41 0 -75 -12.5t-54.5 -37.5t-20.5 -62zM748 308q0 20 11 31t30 11q18 0 29 -11t11 -31q0 -13 -5 -22.5t-14 -15t-21 -5.5t-21.5 5.5t-14.5 15t-5 22.5zM624 114q0 -39 23.5 -67.5t61.5 -43t80 -14.5t79.5 14.5t61 43t23.5 67.5q0 35 -15.5 58.5
t-40.5 38t-53.5 21.5t-54.5 7t-55 -7t-54 -21.5t-40.5 -38t-15.5 -58.5zM740 132q0 13 6.5 24t17.5 17t25 6q13 0 24 -6t17.5 -17t6.5 -24q0 -24 -14 -36.5t-34 -12.5q-21 0 -35 12.5t-14 36.5z" />
    <glyph glyph-name="fiveeighths" unicode="&#x215d;" horiz-adv-x="995" 
d="M698 700l-520 -700h138l520 700h-138zM371 411q0 45 -18.5 75t-47.5 46t-62 16t-61.5 -8.5t-53.5 -35.5l-83 -54q32 14 65 18.5t56 4.5q28 0 53 -10t25 -37t-21 -38.5t-57 -11.5q-19 0 -48 9t-58 29l-38 -100q32 -17 73.5 -30.5t99.5 -13.5q41 0 81.5 14t67.5 46t27 81z
M189 597h172v101h-257l-59 -248l109 49zM649 319q0 -39 23 -65t58 -38.5t69 -12.5q35 0 69.5 12.5t57.5 38.5t23 65q0 37 -20.5 62t-54.5 37.5t-75 12.5q-40 0 -74 -12.5t-55 -37.5t-21 -62zM759 308q0 20 11 31t29 11q19 0 30 -11t11 -31q0 -13 -5 -22.5t-14 -15t-22 -5.5
q-11 0 -20.5 5.5t-14.5 15t-5 22.5zM634 114q0 -39 23.5 -67.5t61.5 -43t80 -14.5q43 0 80.5 14.5t61 43t23.5 67.5q0 35 -15.5 58.5t-40.5 38t-54 21.5t-55 7t-54.5 -7t-53.5 -21.5t-41 -38t-16 -58.5zM751 132q0 13 6.5 24t17.5 17t24 6q14 0 25 -6t17 -17t6 -24
q0 -24 -13.5 -36.5t-34.5 -12.5q-20 0 -34 12.5t-14 36.5z" />
    <glyph glyph-name="seveneighths" unicode="&#x215e;" horiz-adv-x="885" 
d="M580 700l-520 -700h138l520 700h-138zM21 591h187l-159 -311h126l203 420h-357v-109zM539 319q0 -39 23 -65t58 -38.5t69 -12.5q35 0 69.5 12.5t57.5 38.5t23 65q0 37 -20.5 62t-54.5 37.5t-75 12.5q-40 0 -74 -12.5t-55 -37.5t-21 -62zM649 308q0 20 11 31t29 11
q19 0 30 -11t11 -31q0 -13 -5 -22.5t-14 -15t-22 -5.5q-11 0 -20.5 5.5t-14.5 15t-5 22.5zM524 114q0 -39 23.5 -67.5t61.5 -43t80 -14.5q43 0 80.5 14.5t61 43t23.5 67.5q0 35 -15.5 58.5t-40.5 38t-54 21.5t-55 7t-54.5 -7t-53.5 -21.5t-41 -38t-16 -58.5zM641 132
q0 13 6.5 24t17.5 17t24 6q14 0 25 -6t17 -17t6 -24q0 -24 -13.5 -36.5t-34.5 -12.5q-20 0 -34 12.5t-14 36.5z" />
    <glyph glyph-name="partialdiff" unicode="&#x2202;" horiz-adv-x="636" 
d="M314 -18q79 0 141.5 35t98 96t35.5 137q0 45 -13.5 93.5t-40.5 99.5t-67.5 105t-93 110t-117.5 113l-131 -81q53 -37 100 -78t87.5 -85.5t75 -93t62.5 -100.5l42 -2q-95 147 -234 147q-63 0 -111 -28.5t-74.5 -79.5t-26.5 -120q0 -78 34 -139t94.5 -95t138.5 -34z
M317 130q-27 0 -48 13t-32.5 35.5t-11.5 51.5t12 52t33 36t47 13q28 0 48.5 -13t32.5 -36t12 -52t-11.5 -51.5t-32.5 -35.5t-49 -13z" />
    <glyph glyph-name="emptyset" unicode="&#x2205;" horiz-adv-x="600" 
d="M298 20q62 0 112.5 30t80.5 80.5t30 112.5q0 61 -30 111.5t-80.5 81t-112.5 30.5q-61 0 -111.5 -30.5t-80.5 -81t-30 -111.5q0 -62 30 -112.5t80.5 -80.5t111.5 -30zM298 130q-31 0 -56.5 15.5t-40 41t-14.5 56.5t14.5 56.5t40.5 40.5t57 15t56.5 -15t41 -40.5
t15.5 -56.5q0 -30 -15.5 -55.5t-41 -41.5t-57.5 -16zM132 20l390 388l-57 57l-390 -388z" />
    <glyph glyph-name="product" unicode="&#x220f;" horiz-adv-x="600" 
d="M118 0h137v569h90v-569h137v569h74v131h-512v-131h74v-569z" />
    <glyph glyph-name="summation" unicode="&#x2211;" horiz-adv-x="600" 
d="M100 0h400v140h-171l102 212l-102 208h171v140h-400l170 -348z" />
    <glyph glyph-name="minus" unicode="&#x2212;" horiz-adv-x="594" 
d="M54 164h486v147h-486v-147z" />
    <glyph glyph-name="uni2215" unicode="&#x2215;" horiz-adv-x="636" 
d="M456 700l-441 -850h173l433 850h-165z" />
    <glyph glyph-name="uni2219" unicode="&#x2219;" horiz-adv-x="329" 
d="M59 451q0 -42 29.5 -72.5t76.5 -30.5t76 30.5t29 72.5q0 43 -29 73.5t-76 30.5t-76.5 -30.5t-29.5 -73.5z" />
    <glyph glyph-name="radical" unicode="&#x221a;" horiz-adv-x="600" 
d="M245 -195l-145 399l85 -37l-130 -39l-38 116l164 58l97 -286l-69 47l146 637h175v-134h-162l99 97z" />
    <glyph glyph-name="infinity" unicode="&#x221e;" horiz-adv-x="823" 
d="M214 24q97 0 197 120q50 -60 98.5 -90t98.5 -30q52 0 95.5 28.5t70.5 75.5t27 102q0 56 -27 102.5t-70.5 75t-95.5 28.5q-97 0 -196 -121q-101 121 -198 121q-51 0 -94.5 -28.5t-70.5 -75t-27 -102.5q0 -55 27 -102t70.5 -75.5t94.5 -28.5zM237 149q-19 0 -36 11.5
t-28 30t-11 39.5q0 22 11 39.5t28 29t37 11.5q25 0 51 -20.5t50 -59.5q-24 -39 -50 -60t-52 -21zM586 149q-26 0 -51.5 21t-50.5 60q25 39 51 59.5t51 20.5q20 0 37 -11t27 -29t10 -40q0 -21 -10 -39.5t-27 -30t-37 -11.5z" />
    <glyph glyph-name="integral" unicode="&#x222b;" horiz-adv-x="600" 
d="M189 -200q51 0 91 20.5t63.5 58.5t25.5 88l34 616q2 29 14 46t31 17q11 0 22 -5.5t25 -19.5l62 120q-40 31 -72 43.5t-67 12.5q-75 1 -124.5 -44.5t-54.5 -122.5l-33 -616q-2 -28 -15 -45.5t-33 -17.5q-9 0 -20 5.5t-25 19.5l-63 -120q40 -30 72.5 -43t66.5 -13z" />
    <glyph glyph-name="approxequal" unicode="&#x2248;" horiz-adv-x="600" 
d="M410 307q-31 0 -64 13t-71 38q-29 19 -51.5 29t-38.5 10q-26 0 -32 -19.5t8 -57.5l-133 5q-14 47 4 89.5t58.5 69.5t95.5 27q31 0 61.5 -11.5t71.5 -37.5q30 -18 49 -26.5t30 -8.5q20 0 24 19.5t-10 52.5l134 -5q13 -50 -2.5 -92.5t-50.5 -68.5t-83 -26zM410 57
q-31 0 -64 13t-71 38q-29 19 -51.5 29t-38.5 10q-26 0 -32 -19.5t8 -57.5l-133 5q-14 47 4 89.5t58.5 69.5t95.5 27q31 0 61.5 -11.5t71.5 -37.5q30 -18 49 -26.5t30 -8.5q20 0 24 19.5t-10 52.5l134 -5q13 -50 -2.5 -92.5t-50.5 -68.5t-83 -26z" />
    <glyph glyph-name="notequal" unicode="&#x2260;" horiz-adv-x="600" 
d="M267 -14l-138 52l234 526l138 -54zM53 92v147h524v-147h-524zM53 314v148h524v-148h-524z" />
    <glyph glyph-name="lessequal" unicode="&#x2264;" horiz-adv-x="600" 
d="M60 8v145h514v-145h-514zM570 176l-510 211v118l510 212v-169l-270 -98l270 -106v-168z" />
    <glyph glyph-name="greaterequal" unicode="&#x2265;" horiz-adv-x="600" 
d="M65 8v145h514v-145h-514zM65 176v168l270 99l-270 105v169l510 -212v-118z" />
    <glyph glyph-name="lozenge" unicode="&#x25ca;" horiz-adv-x="600" 
d="M306 15l-206 341l206 340l194 -340zM301 262l55 94l-55 94l-57 -94z" />
    <glyph glyph-name="uniFF10" unicode="&#xff10;" horiz-adv-x="645" 
d="M207 350q0 46 8.5 83t23.5 63t36 39.5t46 13.5q26 0 47 -13.5t36 -39.5t23.5 -63t8.5 -83t-8.5 -83t-23.5 -63t-36 -39.5t-47 -13.5q-25 0 -46 13.5t-36 39.5t-23.5 63t-8.5 83zM21 350q0 -117 38 -198t105.5 -123.5t156.5 -42.5q94 0 161 42.5t103.5 123.5t36.5 198
t-36.5 198t-103.5 123.5t-161 42.5q-89 0 -156.5 -42.5t-105.5 -123.5t-38 -198z" />
    <glyph glyph-name="uniFF11" unicode="&#xff11;" horiz-adv-x="645" 
d="M107 479l179 42v-521h186v714l-365 -70v-165z" />
    <glyph glyph-name="uniFF12" unicode="&#xff12;" horiz-adv-x="645" 
d="M9 0h623v177h-269l145 122q47 38 75 83t28 102q0 44 -18 85t-53 74t-87 52.5t-119 19.5q-96 0 -161.5 -38.5t-98.5 -102t-33 -138.5h190q0 33 12 59t34 40.5t51 14.5q21 0 36.5 -6.5t26 -17t15.5 -24.5t5 -29q0 -27 -11.5 -51.5t-33 -49.5t-50.5 -58z" />
    <glyph glyph-name="uniFF13" unicode="&#xff13;" horiz-adv-x="645" 
d="M274 337q88 0 159.5 18.5t114.5 58.5t43 104q0 55 -30.5 99.5t-89 70.5t-142.5 26q-80 0 -139 -30.5t-91 -82t-32 -115.5h177q0 34 24 55t60 21q25 0 40.5 -7t23.5 -20t8 -30t-9 -32.5t-26 -27.5t-40 -19t-51 -7v-82zM320 -18q93 0 158 27t99 75t34 109q0 54 -24.5 92
t-69.5 63t-106.5 36t-136.5 11v-94q40 0 67.5 -7t45 -19.5t25.5 -29t8 -34.5q0 -27 -12 -44.5t-32.5 -24.5t-47.5 -7q-25 0 -48.5 10t-37.5 32t-14 56h-191q0 -48 19 -93t55.5 -81t89 -56.5t119.5 -20.5z" />
    <glyph glyph-name="uniFF14" unicode="&#xff14;" horiz-adv-x="645" 
d="M10 120h618v164h-172l-17 -29h-270zM189 184l167 254v-271l-24 -11v-156h202v700h-152l-372 -580z" />
    <glyph glyph-name="uniFF15" unicode="&#xff15;" horiz-adv-x="645" 
d="M608 222q0 74 -31 124.5t-80 76.5t-103 26q-56 0 -104 -14t-88 -58l-138 -90q36 16 72.5 24t70.5 11t59 3q31 0 60.5 -7.5t49 -24.5t19.5 -47q0 -29 -16 -48t-44.5 -27t-68.5 -8q-22 0 -51.5 6.5t-61.5 20.5t-64 36l-64 -166q35 -19 77.5 -36t95 -27.5t116.5 -10.5
q51 0 103 13.5t95 42t69.5 73.5t26.5 107zM304 532h286v168h-427l-99 -413l180 82z" />
    <glyph glyph-name="uniFF16" unicode="&#xff16;" horiz-adv-x="645" 
d="M215 250q0 32 14 56t38.5 37t53.5 13q31 0 55 -13t38 -37t14 -56t-14 -55t-38 -36t-55 -13q-29 0 -53.5 13t-38.5 36t-14 55zM307 696l-192 -236q-38 -47 -65 -98t-27 -112q0 -90 41 -149.5t108.5 -89t148.5 -29.5q82 0 149.5 29.5t108.5 89t41 149.5q0 55 -19.5 97
t-52 71.5t-71 44.5t-76.5 15q-39 0 -64.5 -8.5t-55.5 -36.5l43 21l229 242h-246z" />
    <glyph glyph-name="uniFF17" unicode="&#xff17;" horiz-adv-x="645" 
d="M33 519h311l-265 -519h210l339 700h-595v-181z" />
    <glyph glyph-name="uniFF18" unicode="&#xff18;" horiz-adv-x="645" 
d="M89 531q0 -50 22.5 -86.5t59 -60t80.5 -34.5t87 -11t87 11t81 34.5t59.5 60t22.5 86.5q0 62 -34.5 103.5t-91 62.5t-124.5 21q-67 0 -123.5 -21t-91 -62.5t-34.5 -103.5zM271 513q0 21 8.5 37t24 24.5t34.5 8.5q21 0 36 -8.5t23.5 -24.5t8.5 -37t-8.5 -36.5t-23.5 -25
t-36 -9.5q-19 0 -34.5 9.5t-24 25t-8.5 36.5zM64 190q0 -50 22.5 -89t61.5 -65t88.5 -40t101.5 -14q53 0 102 14t88.5 40t62 65t22.5 89q0 58 -26 97.5t-68 64t-90 35.5t-91 11t-91 -11t-89.5 -35.5t-67.5 -64t-26 -97.5zM258 220q0 22 10.5 40t29 28.5t40.5 10.5
q23 0 41.5 -10.5t29 -28.5t10.5 -40q0 -27 -10.5 -45t-29 -27.5t-41.5 -9.5q-22 0 -40.5 9.5t-29 27.5t-10.5 45z" />
    <glyph glyph-name="uniFF19" unicode="&#xff19;" horiz-adv-x="645" 
d="M428 450q0 -32 -14 -55.5t-38 -37t-55 -13.5q-29 0 -53.5 13.5t-38.5 37t-14 55.5t14 55t38.5 36t53.5 13q31 0 55 -13t38 -36t14 -55zM336 4l192 236q38 47 65 98t27 112q0 90 -41 149.5t-108.5 89t-149.5 29.5q-81 0 -148.5 -29.5t-108.5 -89t-41 -149.5
q0 -55 19.5 -97t51.5 -71.5t71 -44.5t77 -15q39 0 64 9t56 36l-43 -21l-229 -242h246z" />
    <glyph glyph-name="a.alt" horiz-adv-x="631" 
d="M405 460v-460h172v460h-172zM31 230q0 -78 31.5 -131.5t81 -81t103.5 -27.5q58 0 103 29t71.5 83t26.5 128q0 75 -26.5 128.5t-71.5 82.5t-103 29q-54 0 -103.5 -27.5t-81 -80.5t-31.5 -132zM213 230q0 31 13 54.5t35 36.5t48 13q23 0 45 -12.5t36 -35.5t14 -56t-14 -56
t-36 -35.5t-45 -12.5q-26 0 -48 13t-35 37t-13 54z" />
    <glyph glyph-name="agrave.alt" horiz-adv-x="631" 
d="M405 460v-460h172v460h-172zM31 230q0 -78 31.5 -131.5t81 -81t103.5 -27.5q58 0 103 29t71.5 83t26.5 128q0 75 -26.5 128.5t-71.5 82.5t-103 29q-54 0 -103.5 -27.5t-81 -80.5t-31.5 -132zM213 230q0 31 13 54.5t35 36.5t48 13q23 0 45 -12.5t36 -35.5t14 -56t-14 -56
t-36 -35.5t-45 -12.5q-26 0 -48 13t-35 37t-13 54zM137 681l180 -150l98 46l-150 160z" />
    <glyph glyph-name="aacute.alt" horiz-adv-x="631" 
d="M405 460v-460h172v460h-172zM31 230q0 -78 31.5 -131.5t81 -81t103.5 -27.5q58 0 103 29t71.5 83t26.5 128q0 75 -26.5 128.5t-71.5 82.5t-103 29q-54 0 -103.5 -27.5t-81 -80.5t-31.5 -132zM213 230q0 31 13 54.5t35 36.5t48 13q23 0 45 -12.5t36 -35.5t14 -56t-14 -56
t-36 -35.5t-45 -12.5q-26 0 -48 13t-35 37t-13 54zM466 681l-128 56l-150 -160l98 -46z" />
    <glyph glyph-name="acircumflex.alt" horiz-adv-x="631" 
d="M405 460v-460h172v460h-172zM31 230q0 -78 31.5 -131.5t81 -81t103.5 -27.5q58 0 103 29t71.5 83t26.5 128q0 75 -26.5 128.5t-71.5 82.5t-103 29q-54 0 -103.5 -27.5t-81 -80.5t-31.5 -132zM213 230q0 31 13 54.5t35 36.5t48 13q23 0 45 -12.5t36 -35.5t14 -56t-14 -56
t-36 -35.5t-45 -12.5q-26 0 -48 13t-35 37t-13 54zM323 614l86 -83l123 80l-209 140l-208 -140l123 -80z" />
    <glyph glyph-name="atilde.alt" horiz-adv-x="631" 
d="M405 460v-460h172v460h-172zM31 230q0 -78 31.5 -131.5t81 -81t103.5 -27.5q58 0 103 29t71.5 83t26.5 128q0 75 -26.5 128.5t-71.5 82.5t-103 29q-54 0 -103.5 -27.5t-81 -80.5t-31.5 -132zM213 230q0 31 13 54.5t35 36.5t48 13q23 0 45 -12.5t36 -35.5t14 -56t-14 -56
t-36 -35.5t-45 -12.5q-26 0 -48 13t-35 37t-13 54zM126 605l77 -69q0 8 3.5 20t14 21.5t28.5 9.5q26 0 48.5 -14t46 -27.5t50.5 -13.5q34 0 63 14.5t50.5 35.5t29.5 39l-79 83q-15 -24 -31 -39t-37 -15t-36.5 8t-29.5 18.5t-31.5 18.5t-42.5 8q-34 0 -60.5 -14.5
t-42.5 -36.5t-21 -47z" />
    <glyph glyph-name="adieresis.alt" horiz-adv-x="631" 
d="M405 460v-460h172v460h-172zM31 230q0 -78 31.5 -131.5t81 -81t103.5 -27.5q58 0 103 29t71.5 83t26.5 128q0 75 -26.5 128.5t-71.5 82.5t-103 29q-54 0 -103.5 -27.5t-81 -80.5t-31.5 -132zM213 230q0 31 13 54.5t35 36.5t48 13q23 0 45 -12.5t36 -35.5t14 -56t-14 -56
t-36 -35.5t-45 -12.5q-26 0 -48 13t-35 37t-13 54zM346 621q0 -40 28.5 -65t69.5 -25q40 0 68.5 25t28.5 65q0 39 -28.5 64t-68.5 25q-41 0 -69.5 -25t-28.5 -64zM89 621q0 -40 28.5 -65t69.5 -25t69.5 25t28.5 65q0 39 -28.5 64t-69.5 25t-69.5 -25t-28.5 -64z" />
    <glyph glyph-name="aring.alt" horiz-adv-x="631" 
d="M405 460v-460h172v460h-172zM31 230q0 -78 31.5 -131.5t81 -81t103.5 -27.5q58 0 103 29t71.5 83t26.5 128q0 75 -26.5 128.5t-71.5 82.5t-103 29q-54 0 -103.5 -27.5t-81 -80.5t-31.5 -132zM213 230q0 31 13 54.5t35 36.5t48 13q23 0 45 -12.5t36 -35.5t14 -56t-14 -56
t-36 -35.5t-45 -12.5q-26 0 -48 13t-35 37t-13 54zM183 651q0 -53 38 -86.5t93 -33.5q56 0 94.5 33.5t38.5 86.5q0 54 -38.5 87t-94.5 33q-55 0 -93 -33t-38 -87zM270 651q0 22 12.5 34.5t31.5 12.5t32.5 -12.5t13.5 -34.5t-13.5 -34t-32.5 -12t-31.5 12t-12.5 34z" />
    <glyph glyph-name="amacron.alt" horiz-adv-x="631" 
d="M405 460v-460h172v460h-172zM31 230q0 -78 31.5 -131.5t81 -81t103.5 -27.5q58 0 103 29t71.5 83t26.5 128q0 75 -26.5 128.5t-71.5 82.5t-103 29q-54 0 -103.5 -27.5t-81 -80.5t-31.5 -132zM213 230q0 31 13 54.5t35 36.5t48 13q23 0 45 -12.5t36 -35.5t14 -56t-14 -56
t-36 -35.5t-45 -12.5q-26 0 -48 13t-35 37t-13 54zM133 531h378v147h-378v-147z" />
    <glyph glyph-name="abreve.alt" horiz-adv-x="631" 
d="M405 460v-460h172v460h-172zM31 230q0 -78 31.5 -131.5t81 -81t103.5 -27.5q58 0 103 29t71.5 83t26.5 128q0 75 -26.5 128.5t-71.5 82.5t-103 29q-54 0 -103.5 -27.5t-81 -80.5t-31.5 -132zM213 230q0 31 13 54.5t35 36.5t48 13q23 0 45 -12.5t36 -35.5t14 -56t-14 -56
t-36 -35.5t-45 -12.5q-26 0 -48 13t-35 37t-13 54zM145 679q0 -42 19.5 -76t57 -53t89.5 -19q53 0 90 19t56.5 53t19.5 76h-107q0 -19 -8.5 -31t-22 -18t-28.5 -6q-14 0 -27.5 6t-22 18t-8.5 31h-108z" />
    <glyph glyph-name="aogonek.alt" horiz-adv-x="631" 
d="M405 460v-460h172v460h-172zM31 230q0 -78 31.5 -131.5t81 -81t103.5 -27.5q58 0 103 29t71.5 83t26.5 128q0 75 -26.5 128.5t-71.5 82.5t-103 29q-54 0 -103.5 -27.5t-81 -80.5t-31.5 -132zM213 230q0 31 13 54.5t35 36.5t48 13q23 0 45 -12.5t36 -35.5t14 -56t-14 -56
t-36 -35.5t-45 -12.5q-26 0 -48 13t-35 37t-13 54zM541 -106q-10 -10 -23 -15t-27 -5q-16 0 -24 9t-8 25q0 15 8.5 30.5t25.5 31t43 30.5l-41 25q-35 -18 -67 -39t-52.5 -46.5t-20.5 -59.5q0 -33 16.5 -55.5t42.5 -33.5t56 -11q44 0 68.5 12.5t35.5 27.5z" />
    </font>
</defs>
</svg>
